Subcategories

Giorgos Dalaras & Katsimiha Bros - There is a reason (1992, live)

Posted By: Speedyclick
Giorgos Dalaras & Katsimiha Bros - There is a reason (1992, live)

Giorgos Dalaras & Katsimiha Bros - There is a reason (1992, live)
EAC Rip | FLAC (image & cue & log) & mp3 @ 320 kbps | tracks: 6 | Scans | 21:37 | ~ 164 Mb & 60 Mb
Label: MINOS-EMI | 5% recovery record | Folk ballads, live

Giorgos Dalaras and Haris & Panos Katsimihas, a prominent twin duo of the greek ballad, met for the first time in 1986 for a series of live performances in Athens. The result was a multi-platinum album. So, obviously "There is a reason" to meet again. This time in Salonica, the second greater town of Greece. Enjoy a real masterpiece, with excellent arrangements and vocals.

TRACKLIST
01. Welcome (Kalosorisma)
02. If there is some reason (An iparxi logos)
03. What a passion (Ti pathos)
04. Canzone per te
05. The clown & the bandit (O paliatsos ke o listis)
06. Laugh buddy (Gela pouli mou)

Exact Audio Copy V1.0 beta 1 from 15. November 2010

EAC extraction logfile from 23. August 2011, 19:36

Giorgos Ntalaras & P.& X.Katsimixas / Iparxi logos

Used drive : HL-DT-STDVDRAM GH10N Adapter: 3 ID: 0

Read mode : Secure
Utilize accurate stream : Yes
Defeat audio cache : Yes
Make use of C2 pointers : No

Read offset correction : 667
Overread into Lead-In and Lead-Out : No
Fill up missing offset samples with silence : Yes
Delete leading and trailing silent blocks : No
Null samples used in CRC calculations : Yes
Used interface : Native Win32 interface for Win NT & 2000

Used output format : User Defined Encoder
Selected bitrate : 1024 kBit/s
Quality : High
Add ID3 tag : No
Command line compressor : C:\Program Files\FLAC\flac.exe
Additional command line options : -V -5 -T "artist=%a" -T "title=%t" -T "album=%g" -T "date=%y" -T "tracknumber=%n" -T "genre=%m" -5 %s


TOC of the extracted CD

Track | Start | Length | Start sector | End sector
––––––––––––––––––––––––––––-
1 | 0:00.00 | 4:44.08 | 0 | 21307
2 | 4:44.08 | 3:10.22 | 21308 | 35579
3 | 7:54.30 | 3:00.03 | 35580 | 49082
4 | 10:54.33 | 3:19.17 | 49083 | 64024
5 | 14:13.50 | 3:58.23 | 64025 | 81897
6 | 18:11.73 | 3:25.47 | 81898 | 97319


Range status and errors

Selected range

Filename U:\EAC Rips\GREEK\George Dalaras\George Dalaras & Katsimixa - Yparxei Logos\Giorgos Ntalaras & P.& X.Katsimixas - Iparxi logos.wav

Peak level 100.0 %
Extraction speed 0.7 X
Range quality 100.0 %
Test CRC 55BED5BE
Copy CRC 55BED5BE
Copy OK

No errors occurred


AccurateRip summary

Track 1 accurately ripped (confidence 1) [801EF8C8]
Track 2 accurately ripped (confidence 1) [5FE38132]
Track 3 accurately ripped (confidence 1) [BC504EB5]
Track 4 accurately ripped (confidence 1) [637961C1]
Track 5 accurately ripped (confidence 1) [14585F1E]
Track 6 accurately ripped (confidence 1) [316201DB]

All tracks accurately ripped

End of status report

==== Log checksum E6DC2F5D6C96B59E8652498B198F859CF3CB35FA09D70037D60BCDF7C2A69BFC ====