Subcategories

Damir Kukuruzović Gypsy Jazz Quintet Featuring Angelo Debarre, Loulou Djine, Zdenka Kovačiček - Green Hill Gypsy Swing (2009)

Posted By: Domestos
Damir Kukuruzović Gypsy Jazz Quintet Featuring Angelo Debarre, Loulou Djine, Zdenka Kovačiček - Green Hill Gypsy Swing (2009)

Damir Kukuruzović Gypsy Jazz Quintet Featuring Angelo Debarre, Loulou Djine, Zdenka Kovačiček - Green Hill Gypsy Swing (2009)
EAC Rip | FLAC (tracks+.cue, log) ~ 292.54 Mb | 45:48 | Covers
Gypsy Swing | Country: Croatia | Label: MENART - 385601091852

Green Hill Gypsy Swing (CD/DVD- Menart/2009)- album gitarističkog virtuoza Damira Kukuruzovića I njegovog benda. Ovaj album svojevrstan je homage glazbi Djanga Reinhardta i Stefana Grappellija, dvojca koji je obilježio europsku jazz glazbu sredinom 20-og stoljeća. Gypsy swing u doba kad je nastajao, a to su bile 30-te godine prošlog stoljeća, bio je jedini pravi europski odgovor na swing glazbu koja je dolazila iz Amerike. Damir Kukuruzović, inače vlasnik Siscia Jazz Cluba već dugi niz godina slovi kao jedan od najvjernijih sljedbenika legendarnog Djanga Reinhardta u ovoj regiji.

Contrabass – Saša Borovec
Drums – Želimir Bičanić
Featuring – Angelo Debarre (tracks: 2 to 4), Loulou Djine (tracks: 2, 4)
Guitar – Goran Grgurač
Guitar, Producer – Damir Kukuruzović
Violin – Bruno Urlić

Track List:
01 Swing Gitan 5:31
Featuring – Angelo DebarreWritten-By – Traditional
02 Django's Tiger 5:18
Written-By – Reinhardt*, Grappelli*
03 Nuages 6:51
Written-By – Reinhardt*
04 Mr. Sandman 5:50
Written-By – Pat Ballard
05 Sweet Georgia Brown 4:59
Featuring – Zdenka KovačičekWritten-By – Bernie*, Casey*, Pinkard*
06 David 3:28
Written-By – Traditional
07 Noto Swing 3:13
Written-By – Lulu Reinhardt
08 Daphne 3:20
Written-By – Reinhardt*
09 Minor Swing 2:48
Written-By – Reinhardt*, Grappelli*
10 Dinah 4:23
Written-By – Akst*, Young*, Lewis*

Damir Kukuruzović Gypsy Jazz Quintet Featuring Angelo Debarre, Loulou Djine, Zdenka Kovačiček - Green Hill Gypsy Swing (2009)

Exact Audio Copy V1.0 beta 3 from 29. August 2011

EAC extraction logfile from 8. March 2018, 14:10

Damir Kukuruzovic Gipsy Jazz Quintet / Green Hill Gipsy Swing

Used drive : TSSTcorpCD/DVDW SH-S162L Adapter: 2 ID: 0

Read mode : Secure
Utilize accurate stream : Yes
Defeat audio cache : Yes
Make use of C2 pointers : No

Read offset correction : 6
Overread into Lead-In and Lead-Out : No
Fill up missing offset samples with silence : Yes
Delete leading and trailing silent blocks : No
Null samples used in CRC calculations : Yes
Used interface : Native Win32 interface for Win NT & 2000
Gap handling : Appended to previous track

Used output format : User Defined Encoder
Selected bitrate : 896 kBit/s
Quality : High
Add ID3 tag : No
Command line compressor : C:\Program Files\Exact Audio Copy\FLAC\FLAC.EXE
Additional command line options : -V -8 -T "Genre=%genre%" -T "Artist=%artist%" -T "Title=%title%" -T "Album=%albumtitle%" -T "Date=%year%" -T "Tracknumber=%tracknr%" -T "Comment=%comment%" %source%

TOC of the extracted CD

Track | Start | Length | Start sector | End sector
––––––––––––––––––––––––––––-
1 | 0:00.00 | 5:32.60 | 0 | 24959
2 | 5:32.60 | 5:20.07 | 24960 | 48966
3 | 10:52.67 | 6:50.09 | 48967 | 79725
4 | 17:43.01 | 5:52.08 | 79726 | 106133
5 | 23:35.09 | 4:56.08 | 106134 | 128341
6 | 28:31.17 | 3:29.13 | 128342 | 144029
7 | 32:00.30 | 3:15.07 | 144030 | 158661
8 | 35:15.37 | 3:21.14 | 158662 | 173750
9 | 38:36.51 | 2:49.09 | 173751 | 186434
10 | 41:25.60 | 4:23.08 | 186435 | 206167

Track 1

Filename D:\Music\Jazz\Damir Kukuruzovic Gipsy Jazz Quintet - Green Hill Gipsy Swing (2009)\01 Swing Gitan.wav

Pre-gap length 0:00:02.00

Peak level 97.7 %
Extraction speed 5.3 X
Track quality 100.0 %
Test CRC CB02A46F
Copy CRC CB02A46F
Copy OK

Track 2

Filename D:\Music\Jazz\Damir Kukuruzovic Gipsy Jazz Quintet - Green Hill Gipsy Swing (2009)\02 Djangos Tiger.wav

Peak level 97.7 %
Extraction speed 5.8 X
Track quality 100.0 %
Test CRC E513BFE7
Copy CRC E513BFE7
Copy OK

Track 3

Filename D:\Music\Jazz\Damir Kukuruzovic Gipsy Jazz Quintet - Green Hill Gipsy Swing (2009)\03 Nuages.wav

Peak level 97.7 %
Extraction speed 6.6 X
Track quality 100.0 %
Test CRC CA7B3A72
Copy CRC CA7B3A72
Copy OK

Track 4

Filename D:\Music\Jazz\Damir Kukuruzovic Gipsy Jazz Quintet - Green Hill Gipsy Swing (2009)\04 Mr. Sandman.wav

Peak level 97.7 %
Extraction speed 7.1 X
Track quality 100.0 %
Test CRC D0E797C3
Copy CRC D0E797C3
Copy OK

Track 5

Filename D:\Music\Jazz\Damir Kukuruzovic Gipsy Jazz Quintet - Green Hill Gipsy Swing (2009)\05 Sweet Georgia Brown.wav

Peak level 97.7 %
Extraction speed 6.6 X
Track quality 99.9 %
Test CRC 6847831B
Copy CRC 6847831B
Copy OK

Track 6

Filename D:\Music\Jazz\Damir Kukuruzovic Gipsy Jazz Quintet - Green Hill Gipsy Swing (2009)\06 David.wav

Peak level 100.0 %
Extraction speed 6.4 X
Track quality 99.9 %
Test CRC E602022E
Copy CRC E602022E
Copy OK

Track 7

Filename D:\Music\Jazz\Damir Kukuruzovic Gipsy Jazz Quintet - Green Hill Gipsy Swing (2009)\07 Noto Swing.wav

Peak level 97.7 %
Extraction speed 7.4 X
Track quality 100.0 %
Test CRC 2E788BA0
Copy CRC 2E788BA0
Copy OK

Track 8

Filename D:\Music\Jazz\Damir Kukuruzovic Gipsy Jazz Quintet - Green Hill Gipsy Swing (2009)\08 Daphne.wav

Peak level 97.7 %
Extraction speed 6.6 X
Track quality 99.9 %
Test CRC 59A0736D
Copy CRC 59A0736D
Copy OK

Track 9

Filename D:\Music\Jazz\Damir Kukuruzovic Gipsy Jazz Quintet - Green Hill Gipsy Swing (2009)\09 Minor Swing.wav

Peak level 97.7 %
Extraction speed 7.7 X
Track quality 100.0 %
Test CRC 71BF9A14
Copy CRC 71BF9A14
Copy OK

Track 10

Filename D:\Music\Jazz\Damir Kukuruzovic Gipsy Jazz Quintet - Green Hill Gipsy Swing (2009)\10 Dinah.wav

Peak level 97.7 %
Extraction speed 8.5 X
Track quality 100.0 %
Test CRC 0B641CD4
Copy CRC 0B641CD4
Copy OK

No errors occurred

End of status report

==== Log checksum CB813F48762EA5FFED79319A4716389C7FF7F31C21EAB71CC26094C6A992EAC9 ====

All thanks go to the latimer

More Music in My Blog
Follow My RSS Channel