Subcategories

Dan Weiss Trio Plus 1 - Utica Box (2019)

Posted By: Domestos
Dan Weiss Trio Plus 1 - Utica Box (2019)

Dan Weiss Trio Plus 1 - Utica Box (2019)
XLD Rip | FLAC (tracks+.cue, log) ~ 316.87 Mb | 01:04:48 | Cover
Modern Creative | Label: Sunnyside - SSC 1573

The music of drummer/composer Dan Weiss always exceeds expectations. No matter the musical situation, he tends to push the boundaries of genre, ensemble sound and expectations. The title of his new trio recording, Utica Box, is a fitting conflagration of a barbaric psychiatric treatment, the Utica crib, and Weiss’s tendency to write and perform music that is outside the box.

Just like the Utica crib, the expectations of jazz listeners can create a claustrophobic setting for musicians. Weiss is a student of jazz and drumming but doesn’t want to be confined to either’s past. His own musical studies have bridged the world of jazz with that of metal, Indian and contemporary classical music. Thus, Weiss breaks the barriers between all these to create his own rhythmically driven and technically demanding music, music outside of the box.

Weiss’s trio has evolved over the past decade as their regular performances have allowed them a near telepathic communication. Pianist Jacob Sacks is a tremendous asset as his approach to the instrument is deft and his method studied. Weiss employs two bassists on Utica Box, singly and dually, depending on what his compositions ask for and the strengths of the bassist. Thomas Morgan and Eivind Opsvik are both at the top of their field on their instrument, Morgan an especially solid accompanist and improviser and the incredibly supportive Opsvik, a master of bowing.

Playing with the trio allows Weiss to focus on a classic element in the jazz tradition, namely the piano trio, and reshape the expressive possibilities to his demanding music. The addition of a second bassist for a number of pieces creates a unique texture and feel.

As a student of the drum and constant practitioner, Weiss has begun to focus on the drumset as a starting point for composition. His past trio projects found him composing from the piano but his recent work has found him utilizing ideas developed in study to become kernels of compositional ideas. Consequently, the pieces utilize more extended musical forms, becoming longer and more openly structured. The repetition inherent to the pieces becomes a basis for improvisation.

The recording begins with the hypnotically persistent “Utica Box,” a piece written in the Japanese gardens of the Rockefeller Estate, where Weiss participated in a residency program in 2013. The piece utilizes subtle changes over long periods of time, a la Morton Feldman, by extending the beats, while both bassists swirl over the drums. The mysterious “Jamerson” looks toward the Motown sound and the groove of James Jamerson and Benny Benjamin for inspiration, Weiss adding his intervallic language in a unique counterpoint with Sacks.

An experiment in the juxtaposition of notes and rhythmic space, “Rock and Heat” is a showcase for Morgan and Opsvik (the title bearing their Weiss given nicknames) in a straight down the middle swing feel with Weiss’s intervals and stretched time feel. The slowly unfolding “Orange” is an intricate composition that balances the weights of space, texture and groove, including indicating specific registers for the piano. There is an emphasis on blurring the line between composition and improvisation here.

The tricky “Please Don’t Leave” utilizes a strong groove of Cuban/African derivation against a counter rhythm in the hi-hat, a sort of two against three feel, while a romantic melody sings over the top. The idea stemming from a bedtime phrase of his daughter, Weiss’s “Last Time One More Time” is a sensitive lullaby that he originally recorded in a large ensemble but stripped down here for a subtle version with the two bassists in simpatico. The recording concludes with the rhythmic tour de force of “Bonham,” which finds the trio trading moods in a diverse suite dedicated to the Led Zeppelin drummer, whose style has permeated everything Weiss has done.

It remains important for Dan Weiss to continue the lineage of jazz drummers within the established modes of performance. He remains a part of the continuum while diverging into new streams of creative composition on his fantastically charged and paradigm shattering Utica Box.



Track List:
01. Utica Box (17:06)
02. Jamerson (2:26)
03. Rock and Heat (5:56)
04. Orange (11:29)
05. Please Don't Leave (6:03)
06. Last Time One More Time (5:52)
07. Bonham (15:56)

Jacob Sacks - piano
Thomas Morgan - bass
Eivind Opsvik - bass
Dan Weiss - drums

X Lossless Decoder version 20181019 (151.1)

XLD extraction logfile from 2019-11-08 11:50:10 +0100

Dan Weiss Trio Plus 1 / Utica Box

Used drive : Apple SuperDrive (revision 2.03)
Media type : Pressed CD

Ripper mode : XLD Secure Ripper
Disable audio cache : OK for the drive with a cache less than 1375KiB
Make use of C2 pointers : NO
Read offset correction : 6
Max retry count : 100
Gap status : Analyzed, Appended (except HTOA)

TOC of the extracted CD
Track | Start | Length | Start sector | End sector
––––––––––––––––––––––––––––-
1 | 00:00:00 | 17:05:66 | 0 | 76940
2 | 17:05:66 | 02:25:43 | 76941 | 87858
3 | 19:31:34 | 05:55:74 | 87859 | 114557
4 | 25:27:33 | 11:29:01 | 114558 | 166233
5 | 36:56:34 | 06:03:26 | 166234 | 193484
6 | 42:59:60 | 05:51:50 | 193485 | 219859
7 | 48:51:35 | 15:55:40 | 219860 | 291524

AccurateRip Summary
Disc not found in AccurateRip DB.

All Tracks
Album gain : 1.03 dB
Peak : 0.944427
Statistics
Read error : 0
Jitter error (maybe fixed) : 0
Retry sector count : 0
Damaged sector count : 0

Track 01
Filename : /Volumes/pmarg RAID Set 1 /redacted/Dan Weiss Trio Plus 1 - Utica Box (2019) [FLAC]/01 Utica Box.flac
Pre-gap length : 00:02:00

Track gain : -0.38 dB
Peak : 0.944305
CRC32 hash (test run) : 281074FF
CRC32 hash : 281074FF
CRC32 hash (skip zero) : 0DF06FC3
AccurateRip v1 signature : 6B20A936
AccurateRip v2 signature : 12D06CE6
->Track not present in AccurateRip database.
Statistics
Read error : 0
Jitter error (maybe fixed) : 0
Retry sector count : 0
Damaged sector count : 0

Track 02
Filename : /Volumes/pmarg RAID Set 1 /redacted/Dan Weiss Trio Plus 1 - Utica Box (2019) [FLAC]/02 Jamerson.flac
Pre-gap length : 00:03:32

Track gain : 2.71 dB
Peak : 0.944183
CRC32 hash (test run) : 6B59337D
CRC32 hash : 6B59337D
CRC32 hash (skip zero) : 0F1BFA1E
AccurateRip v1 signature : 930B9AB3
AccurateRip v2 signature : 3A8C1857
->Track not present in AccurateRip database.
Statistics
Read error : 0
Jitter error (maybe fixed) : 0
Retry sector count : 0
Damaged sector count : 0

Track 03
Filename : /Volumes/pmarg RAID Set 1 /redacted/Dan Weiss Trio Plus 1 - Utica Box (2019) [FLAC]/03 Rock and Heat.flac
Pre-gap length : 00:03:31

Track gain : 4.05 dB
Peak : 0.767456
CRC32 hash (test run) : 3ECA963F
CRC32 hash : 3ECA963F
CRC32 hash (skip zero) : C9953E95
AccurateRip v1 signature : D35168FA
AccurateRip v2 signature : 10DE0968
->Track not present in AccurateRip database.
Statistics
Read error : 0
Jitter error (maybe fixed) : 0
Retry sector count : 0
Damaged sector count : 0

Track 04
Filename : /Volumes/pmarg RAID Set 1 /redacted/Dan Weiss Trio Plus 1 - Utica Box (2019) [FLAC]/04 Orange.flac
Pre-gap length : 00:03:58

Track gain : 0.95 dB
Peak : 0.944366
CRC32 hash (test run) : BD63349F
CRC32 hash : BD63349F
CRC32 hash (skip zero) : 7BE8A24A
AccurateRip v1 signature : 9A2975A8
AccurateRip v2 signature : 2BB0F06A
->Track not present in AccurateRip database.
Statistics
Read error : 0
Jitter error (maybe fixed) : 0
Retry sector count : 0
Damaged sector count : 0

Track 05
Filename : /Volumes/pmarg RAID Set 1 /redacted/Dan Weiss Trio Plus 1 - Utica Box (2019) [FLAC]/05 Please Don't Leave.flac
Pre-gap length : 00:00:33

Track gain : 1.84 dB
Peak : 0.816559
CRC32 hash (test run) : C782314C
CRC32 hash : C782314C
CRC32 hash (skip zero) : 13A59116
AccurateRip v1 signature : 7CD6A1B2
AccurateRip v2 signature : 76764753
->Track not present in AccurateRip database.
Statistics
Read error : 0
Jitter error (maybe fixed) : 0
Retry sector count : 0
Damaged sector count : 0

Track 06
Filename : /Volumes/pmarg RAID Set 1 /redacted/Dan Weiss Trio Plus 1 - Utica Box (2019) [FLAC]/06 Last Time One More Time.flac
Pre-gap length : 00:02:22

Track gain : 5.27 dB
Peak : 0.625366
CRC32 hash (test run) : F53C1786
CRC32 hash : F53C1786
CRC32 hash (skip zero) : A698E44E
AccurateRip v1 signature : 5E73280C
AccurateRip v2 signature : 77F35B45
->Track not present in AccurateRip database.
Statistics
Read error : 0
Jitter error (maybe fixed) : 0
Retry sector count : 0
Damaged sector count : 0

Track 07
Filename : /Volumes/pmarg RAID Set 1 /redacted/Dan Weiss Trio Plus 1 - Utica Box (2019) [FLAC]/07 Bonham.flac
Pre-gap length : 00:01:24

Track gain : 0.24 dB
Peak : 0.944427
CRC32 hash (test run) : 2E8B8CE9
CRC32 hash : 2E8B8CE9
CRC32 hash (skip zero) : D2AEFC77
AccurateRip v1 signature : 034A78F8
AccurateRip v2 signature : 07473A01
->Track not present in AccurateRip database.
Statistics
Read error : 0
Jitter error (maybe fixed) : 0
Retry sector count : 0
Damaged sector count : 0

No errors occurred

End of status report

––-BEGIN XLD SIGNATURE––-
iYgilAX37nZ6UrOFQiFhk.lQHCmc5XMXvFOc9TZn1T0lFyx44eiwVWsPM1SyZUNsN5Nux4XNzndxDhAI3lnn2IBowQ5SGt9gMvWNIIK
––-END XLD SIGNATURE––-

All thanks go to the bilayer

More Music in My Blog
Follow My RSS Channel