Subcategories

Daniel Erdmann's Velvet Revolution Featuring Théo Ceccaldi & Jim Hart - A Short Moment Of Zero G (2016)

Posted By: Domestos
Daniel Erdmann's Velvet Revolution Featuring Théo Ceccaldi & Jim Hart - A Short Moment Of Zero G (2016)

Daniel Erdmann's Velvet Revolution Featuring Théo Ceccaldi & Jim Hart - A Short Moment Of Zero G (2016)
EAC Rip | FLAC (tracks+.cue, log) ~ 213.98 Mb | 44:26 | Cover
Contemporary Jazz | Country: Germany | Label: Budapest Music Center Records - BMC CD 239

Daniel Erdmann, active as a member and co-leader of many bands, had the sound of this trio in his ear, and looked for and finally found the musicians who would allow the inner sound to become a reality. Here is a band that totally bears his stamp, that of the tenor saxophonist and composer. At the same time, in the ensemble playing there is lots of leeway for the participants. Music of this kind is about freedom, about the freedom to improvise in relation to the composition, freedom of feeling, thinking, and desire. What initially makes you sit up and take notice and draws you in, is the gesture, the closeness to speech, the narrative and rhapsodical manner.

Daniel Erdmann's pieces are compact, sometimes even complex, and within their forms the participants can roam freely. Daniel Erdmann is a self-confessed melodist. And this is often much harder than hiding yourself behind a material exegesis, because the ideas and the statements have to be strong. In this skein of voices with violin, viola and vibraphone, he weaves together a trio that makes it possible for the parts to share rhythmic or harmonic aspects, to cross over or develop one another. French violinist Théo Ceccaldi contributes something from the grand French string tradition, as well as jazz references and something very contemporary: he can wallow in melody, but also provide abstract, percussive action. The luminous sound of Jim Hart's vibraphone reinforces the chamber music like magic of the trio. Jim Hart brings with him that rhythmic competence that here enables him to dispense with drums, brilliantly. Daniel Erdmann's Velvet Revolution is free from intent, the desire to illustrate, although it does contain a number of allusions. The music draws from the confrontation with reality and bubbles from the imagination. It has something poetic and something anecdotal; something picturesque and something abstract.

Daniel Erdmann: tenor saxophone
Théo Ceccaldi: violin & viola
Jim Hart: vibraphone

Track List:
1. A Pair Of Lost Kites Hurrying Towards Heaven (03:46)
2. Infinity Kicks In (03:44)
3. Velvet Revolution (03:27)
4. Quand J'étais Petit Je Rêvais D'être Pauvre (03:37)
5. Les Agnettes (04:16)
6. I See A Strange Light (06:09)
7. Swing Für Europa (01:36)
8. Los Frigos (05:33)
9. A Short Moment Of Zero G (04:28)
10. Try To Run (05:19)
11. Still A Rat (02:12)

Daniel Erdmann's Velvet Revolution Featuring Théo Ceccaldi & Jim Hart - A Short Moment Of Zero G (2016)

Exact Audio Copy V1.1 from 23. June 2015

EAC extraction logfile from 25. August 2017, 16:51

Daniel Erdmann's Velvet Revolution / A Short Moment of Zero G

Used drive : HL-DT-STDVDRAM GT50N Adapter: 1 ID: 0

Read mode : Secure
Utilize accurate stream : Yes
Defeat audio cache : Yes
Make use of C2 pointers : No

Read offset correction : 103
Overread into Lead-In and Lead-Out : No
Fill up missing offset samples with silence : Yes
Delete leading and trailing silent blocks : No
Null samples used in CRC calculations : Yes
Used interface : Native Win32 interface for Win NT & 2000
Gap handling : Appended to previous track

Used output format : User Defined Encoder
Selected bitrate : 1024 kBit/s
Quality : High
Add ID3 tag : No
Command line compressor : C:\Program Files (x86)\Exact Audio Copy\Flac\flac.exe
Additional command line options : -8 -e -V -T "ARTIST=%artist%" -T "TITLE=%title%" -T "ALBUM=%albumtitle%" -T "DATE=%year%" -T "TRACKNUMBER=%tracknr%" -T "GENRE=%genre%" -T "PERFORMER=%albuminterpret%" -T "COMPOSER=%composer%" %haslyrics%–tag-from-file=LYRICS="%lyricsfile%"%haslyrics% -T "ALBUMARTIST=%albumartist%" -T "DISCNUMBER=%cdnumber%" -T "TOTALDISCS=%totalcds%" -T "TOTALTRACKS=%numtracks%" -T "COMMENT=%comment%" %source% -o %dest%

TOC of the extracted CD

Track | Start | Length | Start sector | End sector
––––––––––––––––––––––––––––-
1 | 0:00.00 | 3:50.04 | 0 | 17253
2 | 3:50.04 | 3:44.45 | 17254 | 34098
3 | 7:34.49 | 3:31.12 | 34099 | 49935
4 | 11:05.61 | 3:31.43 | 49936 | 65803
5 | 14:37.29 | 4:17.31 | 65804 | 85109
6 | 18:54.60 | 6:13.32 | 85110 | 113116
7 | 25:08.17 | 1:36.04 | 113117 | 120320
8 | 26:44.21 | 5:36.26 | 120321 | 145546
9 | 32:20.47 | 4:29.60 | 145547 | 165781
10 | 36:50.32 | 5:24.15 | 165782 | 190096
11 | 42:14.47 | 2:12.11 | 190097 | 200007

Track 1

Filename C:\Rips v2\Daniel Erdmann's Velvet Revolution - A Short Moment of Zero G [BMC CD 239] (FLAC)\01 - A Pair of Lost Kites Hurrying Towards Heaven.wav

Pre-gap length 0:00:02.00

Peak level 95.1 %
Extraction speed 1.1 X
Track quality 99.9 %
Test CRC 47445294
Copy CRC 47445294
Accurately ripped (confidence 4) [C313C377] (AR v2)
Copy OK

Track 2

Filename C:\Rips v2\Daniel Erdmann's Velvet Revolution - A Short Moment of Zero G [BMC CD 239] (FLAC)\02 - Infinity Kicks In.wav

Pre-gap length 0:00:06.00

Peak level 96.0 %
Extraction speed 1.4 X
Track quality 100.0 %
Test CRC BE877989
Copy CRC BE877989
Accurately ripped (confidence 4) [E5BC0BAB] (AR v2)
Copy OK

Track 3

Filename C:\Rips v2\Daniel Erdmann's Velvet Revolution - A Short Moment of Zero G [BMC CD 239] (FLAC)\03 - Velvet Revolution.wav

Pre-gap length 0:00:03.00

Peak level 96.9 %
Extraction speed 1.2 X
Track quality 99.9 %
Test CRC 6ED9CB80
Copy CRC 6ED9CB80
Accurately ripped (confidence 4) [57A2C5A0] (AR v2)
Copy OK

Track 4

Filename C:\Rips v2\Daniel Erdmann's Velvet Revolution - A Short Moment of Zero G [BMC CD 239] (FLAC)\04 - Quand J'étais Petit Je Rêvais D'être Pauvre.wav

Pre-gap length 0:00:05.94

Peak level 95.1 %
Extraction speed 1.6 X
Track quality 100.0 %
Test CRC 1494ADFB
Copy CRC 1494ADFB
Accurately ripped (confidence 4) [AD74D2A9] (AR v2)
Copy OK

Track 5

Filename C:\Rips v2\Daniel Erdmann's Velvet Revolution - A Short Moment of Zero G [BMC CD 239] (FLAC)\05 - Les Agnettes.wav

Pre-gap length 0:00:05.00

Peak level 95.1 %
Extraction speed 1.7 X
Track quality 100.0 %
Test CRC F68F4806
Copy CRC F68F4806
Accurately ripped (confidence 4) [5D53E327] (AR v2)
Copy OK

Track 6

Filename C:\Rips v2\Daniel Erdmann's Velvet Revolution - A Short Moment of Zero G [BMC CD 239] (FLAC)\06 - I See a Strange Light.wav

Pre-gap length 0:00:04.09

Peak level 95.1 %
Extraction speed 1.9 X
Track quality 100.0 %
Test CRC C2A607C2
Copy CRC C2A607C2
Accurately ripped (confidence 4) [E2D06FBD] (AR v2)
Copy OK

Track 7

Filename C:\Rips v2\Daniel Erdmann's Velvet Revolution - A Short Moment of Zero G [BMC CD 239] (FLAC)\07 - Swing Für Europa.wav

Pre-gap length 0:00:06.37

Peak level 95.0 %
Extraction speed 1.5 X
Track quality 100.0 %
Test CRC BB1A632B
Copy CRC BB1A632B
Accurately ripped (confidence 4) [63E5E4DB] (AR v2)
Copy OK

Track 8

Filename C:\Rips v2\Daniel Erdmann's Velvet Revolution - A Short Moment of Zero G [BMC CD 239] (FLAC)\08 - Los Frigos.wav

Pre-gap length 0:00:03.00

Peak level 95.4 %
Extraction speed 2.0 X
Track quality 100.0 %
Test CRC C8B353AF
Copy CRC C8B353AF
Accurately ripped (confidence 4) [75940D99] (AR v2)
Copy OK

Track 9

Filename C:\Rips v2\Daniel Erdmann's Velvet Revolution - A Short Moment of Zero G [BMC CD 239] (FLAC)\09 - A Short Moment of Zero G.wav

Pre-gap length 0:00:05.00

Peak level 94.9 %
Extraction speed 1.8 X
Track quality 100.0 %
Test CRC 3789E7E5
Copy CRC 3789E7E5
Accurately ripped (confidence 4) [25E716D6] (AR v2)
Copy OK

Track 10

Filename C:\Rips v2\Daniel Erdmann's Velvet Revolution - A Short Moment of Zero G [BMC CD 239] (FLAC)\10 - Try to Run.wav

Pre-gap length 0:00:03.00

Peak level 95.3 %
Extraction speed 1.9 X
Track quality 100.0 %
Test CRC FCAD351E
Copy CRC FCAD351E
Accurately ripped (confidence 4) [D05D446E] (AR v2)
Copy OK

Track 11

Filename C:\Rips v2\Daniel Erdmann's Velvet Revolution - A Short Moment of Zero G [BMC CD 239] (FLAC)\11 - Still a Rat.wav

Pre-gap length 0:00:06.00

Peak level 95.2 %
Extraction speed 1.2 X
Track quality 99.9 %
Test CRC FAC49E64
Copy CRC FAC49E64
Accurately ripped (confidence 4) [389C4827] (AR v2)
Copy OK

All tracks accurately ripped

No errors occurred

End of status report

–– CUETools DB Plugin V2.1.6

[CTDB TOCID: xnFZPyHVnZiDGxzSmo6mrwoayMQ-] found
Submit result: xnFZPyHVnZiDGxzSmo6mrwoayMQ- has been confirmed
Track | CTDB Status
1 | (12/12) Accurately ripped
2 | (12/12) Accurately ripped
3 | (12/12) Accurately ripped
4 | (12/12) Accurately ripped
5 | (12/12) Accurately ripped
6 | (12/12) Accurately ripped
7 | (12/12) Accurately ripped
8 | (12/12) Accurately ripped
9 | (12/12) Accurately ripped
10 | (12/12) Accurately ripped
11 | (11/12) Accurately ripped

==== Log checksum D6B9185E20A98533F03F025A74BDA1D37CF4537A4FBCD2A5123B2C06BC2F0895 ====

All thanks go to the shitlipsdotbiz

More Music in My Blog
Follow My RSS Channel