Daniel Hart - A Ghost Story (Original Soundtrack Album) (2017)

Posted By: Domestos
Daniel Hart - A Ghost Story (Original Soundtrack Album) (2017)

Daniel Hart - A Ghost Story (Original Soundtrack Album) (2017)
EAC Rip | FLAC (tracks+.cue, log) ~ 203.17 Mb | 45:30 | Cover
Score | Label: Milan

A Ghost Story is the new film from director David Lowery (Pete's Dragon) starring Casey Affleck (Manchester By The Sea) and Rooney Mara (Carol). In this singular exploration of legacy, love, loss, and the enormity of existence, the movie follows a recently deceased, white-sheeted ghost returning to his suburban home to try and reconnect with his bereft wife. Highly anticipated, A Ghost Story is being released by A24 on July 7, 2017. The score to A Ghost Story was composed by Lowrey's frequent collaborator Daniel Hart (Tumbledown). Astral in sound and cosmic in scope, Hart's compositions for A Ghost Story will haunt you.

Track List:
01. Whatever Hour You Woke [02:26]
02. Little Notes [05:23]
03. One Door Closes [03:30]
04. Post Pie [04:05]
05. Gentleman Caller [04:10]
06. Dark Rooms / I Get Overwhelmed [04:45]
07. The Secret In The Wall [04:11]
08. Viventes Enim [03:29]
09. Sciunt Se Esse Mortui [03:09]
10. Thesaurus Tuus [04:58]
11. History [02:15]
12. Safe Safe Safe [03:04]

Exact Audio Copy V1.1 from 23. June 2015

EAC extraction logfile from 18. October 2017, 14:13

Daniel Hart / A Ghost Story

Used drive : slimtype eTDU108 1 Adapter: 1 ID: 0

Read mode : Secure
Utilize accurate stream : Yes
Defeat audio cache : Yes
Make use of C2 pointers : No

Read offset correction : 6
Overread into Lead-In and Lead-Out : No
Fill up missing offset samples with silence : Yes
Delete leading and trailing silent blocks : No
Null samples used in CRC calculations : Yes
Used interface : Native Win32 interface for Win NT & 2000
Gap handling : Appended to previous track

Used output format : User Defined Encoder
Selected bitrate : 1024 kBit/s
Quality : High
Add ID3 tag : No
Command line compressor : C:\Program Files (x86)\Exact Audio Copy\FLAC\FLAC.EXE
Additional command line options : -6 -V -T "ARTIST=%artist%" -T "TITLE=%title%" -T "ALBUM=%albumtitle%" -T "DATE=%year%" -T "TRACKNUMBER=%tracknr%" -T "GENRE=%genre%" -T "COMMENT=%comment%" -T "BAND=%albuminterpret%" -T "ALBUMARTIST=%albuminterpret%" -T "COMPOSER=%composer%" %haslyrics%–tag-from-file=LYRICS="%lyricsfile%"%haslyrics% -T "DISCNUMBER=%cdnumber%" -T "TOTALDISCS=%totalcds%" -T "TOTALTRACKS=%numtracks%" %hascover%–picture="%coverfile%"%hascover% %source% -o %dest%

TOC of the extracted CD

Track | Start | Length | Start sector | End sector
––––––––––––––––––––––––––––-
1 | 0:00.00 | 2:26.31 | 0 | 10980
2 | 2:26.31 | 5:23.06 | 10981 | 35211
3 | 7:49.37 | 3:30.46 | 35212 | 51007
4 | 11:20.08 | 4:05.55 | 51008 | 69437
5 | 15:25.63 | 4:10.53 | 69438 | 88240
6 | 19:36.41 | 4:45.19 | 88241 | 109634
7 | 24:21.60 | 4:11.39 | 109635 | 128498
8 | 28:33.24 | 3:29.00 | 128499 | 144173
9 | 32:02.24 | 3:09.20 | 144174 | 158368
10 | 35:11.44 | 4:58.46 | 158369 | 180764
11 | 40:10.15 | 2:15.73 | 180765 | 190962
12 | 42:26.13 | 3:04.56 | 190963 | 204818

Track 1

Filename D:\My Music\barca008\Daniel Hart - A Ghost Story\01 - Whatever Hour You Woke.wav

Pre-gap length 0:00:02.00

Peak level 98.8 %
Extraction speed 0.8 X
Track quality 99.9 %
Test CRC D1C07E68
Copy CRC D1C07E68
Track not present in AccurateRip database
Copy OK

Track 2

Filename D:\My Music\barca008\Daniel Hart - A Ghost Story\02 - Little Notes.wav

Peak level 98.8 %
Extraction speed 1.2 X
Track quality 100.0 %
Test CRC BD62844F
Copy CRC BD62844F
Track not present in AccurateRip database
Copy OK

Track 3

Filename D:\My Music\barca008\Daniel Hart - A Ghost Story\03 - One Door Closes.wav

Pre-gap length 0:00:01.42

Peak level 99.3 %
Extraction speed 1.3 X
Track quality 100.0 %
Test CRC 6AE875AB
Copy CRC 6AE875AB
Track not present in AccurateRip database
Copy OK

Track 4

Filename D:\My Music\barca008\Daniel Hart - A Ghost Story\04 - Post Pie.wav

Peak level 65.3 %
Extraction speed 1.4 X
Track quality 100.0 %
Test CRC CE9F3D6E
Copy CRC CE9F3D6E
Track not present in AccurateRip database
Copy OK

Track 5

Filename D:\My Music\barca008\Daniel Hart - A Ghost Story\05 - Gentleman Caller.wav

Pre-gap length 0:00:00.17

Peak level 98.8 %
Extraction speed 1.5 X
Track quality 100.0 %
Test CRC 742BBFEC
Copy CRC 742BBFEC
Track not present in AccurateRip database
Copy OK

Track 6

Filename D:\My Music\barca008\Daniel Hart - A Ghost Story\06 - I Get Overwhelmed.wav

Pre-gap length 0:00:00.34

Peak level 98.8 %
Extraction speed 1.7 X
Track quality 100.0 %
Test CRC 2510B25B
Copy CRC 2510B25B
Track not present in AccurateRip database
Copy OK

Track 7

Filename D:\My Music\barca008\Daniel Hart - A Ghost Story\07 - The Secret In The Wall.wav

Pre-gap length 0:00:00.86

Peak level 98.8 %
Extraction speed 1.7 X
Track quality 100.0 %
Test CRC 5A1CC32E
Copy CRC 5A1CC32E
Track not present in AccurateRip database
Copy OK

Track 8

Filename D:\My Music\barca008\Daniel Hart - A Ghost Story\08 - Viventes Enim.wav

Pre-gap length 0:00:00.33

Peak level 98.8 %
Extraction speed 1.8 X
Track quality 100.0 %
Test CRC 00811493
Copy CRC 00811493
Track not present in AccurateRip database
Copy OK

Track 9

Filename D:\My Music\barca008\Daniel Hart - A Ghost Story\09 - Sciunt Se Esse Mortui.wav

Peak level 98.8 %
Extraction speed 1.8 X
Track quality 100.0 %
Test CRC 81CD0990
Copy CRC 81CD0990
Track not present in AccurateRip database
Copy OK

Track 10

Filename D:\My Music\barca008\Daniel Hart - A Ghost Story\10 - Thesaurus Tuus.wav

Peak level 98.8 %
Extraction speed 2.0 X
Track quality 100.0 %
Test CRC 391072BB
Copy CRC 391072BB
Track not present in AccurateRip database
Copy OK

Track 11

Filename D:\My Music\barca008\Daniel Hart - A Ghost Story\11 - History.wav

Peak level 85.4 %
Extraction speed 1.8 X
Track quality 100.0 %
Test CRC 20B39526
Copy CRC 20B39526
Track not present in AccurateRip database
Copy OK

Track 12

Filename D:\My Music\barca008\Daniel Hart - A Ghost Story\12 - Safe Safe Safe.wav

Pre-gap length 0:00:00.69

Peak level 98.9 %
Extraction speed 2.0 X
Track quality 100.0 %
Test CRC B0221180
Copy CRC B0221180
Track not present in AccurateRip database
Copy OK

None of the tracks are present in the AccurateRip database

No errors occurred

End of status report

–– CUETools DB Plugin V2.1.6

[CTDB TOCID: D7G0Cgr1xbCrvA_8ZmYauyNnA0U-] found
Submit result: D7G0Cgr1xbCrvA_8ZmYauyNnA0U- has been confirmed
Track | CTDB Status
1 | (3/3) Accurately ripped
2 | (3/3) Accurately ripped
3 | (3/3) Accurately ripped
4 | (3/3) Accurately ripped
5 | (3/3) Accurately ripped
6 | (3/3) Accurately ripped
7 | (3/3) Accurately ripped
8 | (3/3) Accurately ripped
9 | (3/3) Accurately ripped
10 | (3/3) Accurately ripped
11 | (3/3) Accurately ripped
12 | (3/3) Accurately ripped

==== Log checksum 89634C153DA7696BCEE288868C61392CC302829E9FC84DA980DBE3960A24BEDD ====

All thanks go to the RED

More Music in My Blog
Follow My RSS Channel