Subcategories

Danny Elfman - Fifty Shades Freed (Original Motion Picture Score) (2018)

Posted By: delpotro
Danny Elfman - Fifty Shades Freed (Original Motion Picture Score) (2018)

Danny Elfman - Fifty Shades Freed (Original Motion Picture Score) (2018)
EAC Rip | FLAC (tracks+log+.cue) - 197 Mb | Scans - 103 Mb | 00:43:12
Soundtrack | Label: Back Lot Music

Back Lot Music will release a score album for the film adaptation of Fifty Shades Freed. The album features the film’s original music composed by Danny Elfman (Batman, Spider-Man, Alice in Wonderland, Charlie and the Chocolate Factory, Avengers: Age of Ultron). The soundtrack will be released physically on February 16, 2018 and is now available for pre-order on Amazon. The label has previously released the composer’s score for Fifty Shades Darker and Republic Records has released Elfman’s music from Fifty Shades of Grey. A separate soundtrack for the third installment in the series featuring the songs from the movie will be released by Republic Records. Fifty Shades Freed directed by James Foley and starring Dakota Johnson, Jamie Dornan, Arielle Kebbel, Kim Basinger, Brant Daugherty and Luke Grimes will be released in theaters nationwide on February 9, 2018 by Universal Pictures.
Tracklist:
1. Freed
2. Makeover
3. A Spat
4. Anna Wakes
5. Blueprints
6. Car Fun
7. Trouble in Paradise
8. That’s Not Hyde
9. Jack the Knife
10. Welcome Home
11. Hiking
12. Nightmare
13. Bail
14. Seeing Red
15. Going Gets Rough
16. Ransom
17. The Envelope
18. Rescue

Exact Audio Copy V1.3 from 2. September 2016

EAC extraction logfile from 26. February 2018, 11:06

Danny Elfman / Fifty Shades Freed

Used drive : PLEXTOR CD-R PX-230A Adapter: 1 ID: 0

Read mode : Secure
Utilize accurate stream : Yes
Defeat audio cache : Yes
Make use of C2 pointers : No

Read offset correction : 738
Overread into Lead-In and Lead-Out : No
Fill up missing offset samples with silence : Yes
Delete leading and trailing silent blocks : No
Null samples used in CRC calculations : Yes
Used interface : Native Win32 interface for Win NT & 2000
Gap handling : Appended to previous track

Used output format : User Defined Encoder
Selected bitrate : 1024 kBit/s
Quality : High
Add ID3 tag : No
Command line compressor : C:\Program Files\Exact Audio Copy\Flac\flac.exe
Additional command line options : -6 -V -T "ARTIST=%artist%" -T "TITLE=%title%" -T "ALBUM=%albumtitle%" -T "DATE=%year%" -T "TRACKNUMBER=%tracknr%" -T "GENRE=%genre%" -T "COMMENT=%comment%" -T "ALBUMARTIST=%albuminterpret%" -T "COMPOSER=%composer%" -T "DISCNUMBER=%cdnumber%" -T "TOTALDISCS=%totalcds%" -T "TOTALTRACKS=%numtracks%" %source% -o %dest%


TOC of the extracted CD

Track | Start | Length | Start sector | End sector
––––––––––––––––––––––––––––-
1 | 0:00.00 | 2:10.50 | 0 | 9799
2 | 2:10.50 | 2:21.09 | 9800 | 20383
3 | 4:31.59 | 1:35.34 | 20384 | 27542
4 | 6:07.18 | 1:40.73 | 27543 | 35115
5 | 7:48.16 | 1:29.35 | 35116 | 41825
6 | 9:17.51 | 1:07.22 | 41826 | 46872
7 | 10:24.73 | 2:35.59 | 46873 | 58556
8 | 13:00.57 | 2:25.00 | 58557 | 69431
9 | 15:25.57 | 1:15.13 | 69432 | 75069
10 | 16:40.70 | 2:39.05 | 75070 | 86999
11 | 19:20.00 | 1:09.47 | 87000 | 92221
12 | 20:29.47 | 1:55.40 | 92222 | 100886
13 | 22:25.12 | 3:05.16 | 100887 | 114777
14 | 25:30.28 | 2:43.45 | 114778 | 127047
15 | 28:13.73 | 2:34.38 | 127048 | 138635
16 | 30:48.36 | 3:57.66 | 138636 | 156476
17 | 34:46.27 | 1:45.34 | 156477 | 164385
18 | 36:31.61 | 6:40.25 | 164386 | 194410


Track 1

Filename C:\Ripped by Filex\01 - Freed.wav

Pre-gap length 0:00:02.00

Peak level 94.4 %
Extraction speed 4.2 X
Track quality 100.0 %
Test CRC D8325E29
Copy CRC D8325E29
Track not present in AccurateRip database
Copy OK

Track 2

Filename C:\Ripped by Filex\02 - Makeover.wav

Peak level 94.3 %
Extraction speed 4.8 X
Track quality 100.0 %
Test CRC 1BDABD81
Copy CRC 1BDABD81
Track not present in AccurateRip database
Copy OK

Track 3

Filename C:\Ripped by Filex\03 - A Spat.wav

Peak level 91.3 %
Extraction speed 4.5 X
Track quality 100.0 %
Test CRC 7A4014E7
Copy CRC 7A4014E7
Track not present in AccurateRip database
Copy OK

Track 4

Filename C:\Ripped by Filex\04 - Anna Wakes.wav

Peak level 67.0 %
Extraction speed 4.5 X
Track quality 100.0 %
Test CRC 78E7982F
Copy CRC 78E7982F
Track not present in AccurateRip database
Copy OK

Track 5

Filename C:\Ripped by Filex\05 - Blueprints.wav

Peak level 94.3 %
Extraction speed 4.4 X
Track quality 100.0 %
Test CRC E463AA21
Copy CRC E463AA21
Track not present in AccurateRip database
Copy OK

Track 6

Filename C:\Ripped by Filex\06 - Car Fun.wav

Peak level 94.5 %
Extraction speed 4.0 X
Track quality 100.0 %
Test CRC 4A8C3802
Copy CRC 4A8C3802
Track not present in AccurateRip database
Copy OK

Track 7

Filename C:\Ripped by Filex\07 - Trouble in Paradise.wav

Peak level 96.3 %
Extraction speed 5.0 X
Track quality 100.0 %
Test CRC DABFD3CE
Copy CRC DABFD3CE
Track not present in AccurateRip database
Copy OK

Track 8

Filename C:\Ripped by Filex\08 - That's Not Hyde.wav

Peak level 87.8 %
Extraction speed 3.4 X
Track quality 100.0 %
Test CRC 59545C48
Copy CRC 59545C48
Track not present in AccurateRip database
Copy OK

Track 9

Filename C:\Ripped by Filex\09 - Jack the Knife.wav

Peak level 94.3 %
Extraction speed 4.1 X
Track quality 100.0 %
Test CRC 64FBFFEF
Copy CRC 64FBFFEF
Track not present in AccurateRip database
Copy OK

Track 10

Filename C:\Ripped by Filex\10 - Welcome Home.wav

Peak level 62.4 %
Extraction speed 4.9 X
Track quality 100.0 %
Test CRC A16B8350
Copy CRC A16B8350
Track not present in AccurateRip database
Copy OK

Track 11

Filename C:\Ripped by Filex\11 - Hiking.wav

Peak level 94.3 %
Extraction speed 4.0 X
Track quality 100.0 %
Test CRC EA5DE945
Copy CRC EA5DE945
Track not present in AccurateRip database
Copy OK

Track 12

Filename C:\Ripped by Filex\12 - Nightmare.wav

Peak level 94.4 %
Extraction speed 3.8 X
Track quality 99.9 %
Test CRC FEFB2756
Copy CRC FEFB2756
Track not present in AccurateRip database
Copy OK

Track 13

Filename C:\Ripped by Filex\13 - Bail.wav

Peak level 94.4 %
Extraction speed 5.2 X
Track quality 100.0 %
Test CRC CF2E0B5B
Copy CRC CF2E0B5B
Track not present in AccurateRip database
Copy OK

Track 14

Filename C:\Ripped by Filex\14 - Seeing Red.wav

Peak level 94.4 %
Extraction speed 5.0 X
Track quality 100.0 %
Test CRC 67EC342E
Copy CRC 67EC342E
Track not present in AccurateRip database
Copy OK

Track 15

Filename C:\Ripped by Filex\15 - Going Gets Rough.wav

Peak level 59.9 %
Extraction speed 4.9 X
Track quality 100.0 %
Test CRC F83D7A43
Copy CRC F83D7A43
Track not present in AccurateRip database
Copy OK

Track 16

Filename C:\Ripped by Filex\16 - Ransom.wav

Peak level 94.4 %
Extraction speed 5.4 X
Track quality 100.0 %
Test CRC B60C3731
Copy CRC B60C3731
Track not present in AccurateRip database
Copy OK

Track 17

Filename C:\Ripped by Filex\17 - The Envelope.wav

Peak level 91.8 %
Extraction speed 4.6 X
Track quality 100.0 %
Test CRC 9375F086
Copy CRC 9375F086
Track not present in AccurateRip database
Copy OK

Track 18

Filename C:\Ripped by Filex\18 - Rescue.wav

Peak level 94.4 %
Extraction speed 5.6 X
Track quality 100.0 %
Test CRC D181F7B3
Copy CRC D181F7B3
Track not present in AccurateRip database
Copy OK


None of the tracks are present in the AccurateRip database

No errors occurred

End of status report

–– CUETools DB Plugin V2.1.6

[CTDB TOCID: vuF0MOJXtmppvH2LYuQIwDo5AoM-] disk not present in database
Submit result: vuF0MOJXtmppvH2LYuQIwDo5AoM- has been uploaded


==== Log checksum 4F6103FDFB19432B6D843DBE1C48ACF35F17E26034C36655EA84AC80EC42D101 ====



Danny Elfman - Fifty Shades Freed (Original Motion Picture Score) (2018)

Thanks to the Original ripper Filex !