Tags
Language
Tags

Dans Dans - Zink (2021)

Posted By: delpotro
Dans Dans - Zink (2021)

Dans Dans - Zink (2021)
EAC Rip | FLAC (tracks+log+.cue) - 278 Mb | MP3 CBR 320 kbps - 127 Mb | 00:54:55
Jazz Rock, Fusion, Psychedelic Rock | Label: Unday Records

In these trying times, where intimacy and closeness are fraught with danger, Dans Dans (Dance Dance) brings you the sound of connection, communication, passion and togetherness.

Dans Dans unites the talents of three of Belgium’s most prolific music makers in Bert Dockx (Flying Horseman), Fred ‘Lyenn’ Jacques (Lyenn, Lanegan band) and Steven Cassiers (Dez Mona, DAAU). An utterly unique musical collective, the trio are set to release new album ‘Zink’ on the 23rd April via Ghent based independent, Unday Records.

From jazz, psychedelic blues and ecstatic noir soundtracks to spacey rock ‘n’ roll, Dans Dans cut their teeth on the cool jazz café scene in Flanders, Brussels with their sensational live performances and have since gone on to become a mainstay on the flourishing Belgian musical landscape.

Releasing their self-produced, eponymous debut album back in 2012, their highly distinctive, intuitive mix of musical styles and their ever-imaginative live shows caught the attention of discerning music lovers, journalists and promoters. A relatively unknown tour de force outside the Benelux region, Dans Dans have built a solid fan base since their inception with limited edition runs of early releases becoming collector’s items among vinyl enthusiasts.

Well-received appearances at Cactus Festival, North Sea Jazz and Pukkelpop, as well as Gent Jazz, Ljubljana Jazz and Jazz Middelheim have confirmed their reputation as one of the most unique and exciting bands to come out of Belgium. In recent years, the group has been touring throughout Europe, garnering enthusiastic reactions beyond the Belgian borders as well. There's a case to be made that Dans Dans even played a key role in breaking down the wall between the Belgian jazz scene and the pop/rock circuit (years before pop journalists began referring to a New Wave of Belgian Jazz).

Opening with the moody noir rhythms of ‘Cinder Bay’, Dans Dans look to construct their own musical universe across ‘Zink’. ‘Naiad’ unfolds into a devastating explosion of heavy feedback and wild, crashing drums before subtle electronica and baroque art-rock collide on ‘Anemone’ giving a good indication of Dans Dans’ eclecticism. There’s unquestionably a deep, underlying filmic beauty to the music, an evolving darkness and a perpetual sense of dread and paranoia. Elsewhere, ‘Ravine’ is intoxicating, provocative and uncompromising while the beatific ‘Shell Star’ is an infectious exploration of hypnotic grooves, atmospheric sounds and mind-bending melodies.

Producer Christine Verschorren (Philippe Catherine, Ivan Paduart) accentuates the music's wondrous fluidity throughout ‘Zink’; the intriguing interplay; the subtle ties; the deep layering. Musical styles and influences are being blended organically and sublimated into what can only be called Dans Dans-music. “This is no fusion, no rock or jazz or ambient. This is the sound of the searching, intuitive human; of a timeless, mysterious dream; of the heart, the gut and the soul,” says Dockx.
Tracklist:
1. Cinder Bay (04:45)
2. Naiad (08:29)
3. Blue Silver (06:11)
4. Anemone (07:11)
5. Sleeper (04:36)
6. Ravine (09:40)
7. Shell Star (08:03)
8. Wrist (06:01)

Exact Audio Copy V1.3 from 2. September 2016

EAC extraction logfile from 24. August 2021, 11:59

Dans Dans / Zink

Used drive : OPTIARC DVD-ROM DDU1681S Adapter: 1 ID: 0

Read mode : Secure
Utilize accurate stream : Yes
Defeat audio cache : Yes
Make use of C2 pointers : No

Read offset correction : 6
Overread into Lead-In and Lead-Out : No
Fill up missing offset samples with silence : Yes
Delete leading and trailing silent blocks : No
Null samples used in CRC calculations : Yes
Used interface : Native Win32 interface for Win NT & 2000
Gap handling : Appended to previous track

Used output format : User Defined Encoder
Selected bitrate : 1024 kBit/s
Quality : High
Add ID3 tag : No
Command line compressor : C:\Program Files (x86)\Exact Audio Copy\Flac\flac.exe
Additional command line options : -8 -V -T "ARTIST=%artist%" -T "TITLE=%title%" -T "ALBUM=%albumtitle%" -T "DATE=%year%" -T "TRACKNUMBER=%tracknr%" -T "GENRE=%genre%" -T "PERFORMER=%albuminterpret%" -T "COMPOSER=%composer%" %haslyrics%–tag-from-file=LYRICS="%lyricsfile%"%haslyrics% -T "ALBUMARTIST=%albumartist%" -T "DISCNUMBER=%cdnumber%" -T "TOTALDISCS=%totalcds%" -T "TOTALTRACKS=%numtracks%" -T "COMMENT=%comment%" %source% -o %dest%


TOC of the extracted CD

Track | Start | Length | Start sector | End sector
––––––––––––––––––––––––––––-
1 | 0:00.00 | 4:44.52 | 0 | 21351
2 | 4:44.52 | 8:29.19 | 21352 | 59545
3 | 13:13.71 | 6:11.34 | 59546 | 87404
4 | 19:25.30 | 7:10.54 | 87405 | 119708
5 | 26:36.09 | 4:35.38 | 119709 | 140371
6 | 31:11.47 | 9:39.37 | 140372 | 183833
7 | 40:51.09 | 8:03.21 | 183834 | 220079
8 | 48:54.30 | 6:01.26 | 220080 | 247180


Track 1

Filename F:\Ripped_CD's\Dans Dans\Zink (2021) [FLAC] (Unday Records 5414165124160)\01 - Cinder Bay.wav

Pre-gap length 0:00:02.00

Peak level 97.5 %
Extraction speed 5.2 X
Track quality 100.0 %
Test CRC 2CB87755
Copy CRC 2CB87755
Track not present in AccurateRip database
Copy OK

Track 2

Filename F:\Ripped_CD's\Dans Dans\Zink (2021) [FLAC] (Unday Records 5414165124160)\02 - Nalad.wav

Peak level 97.5 %
Extraction speed 5.9 X
Track quality 99.9 %
Test CRC 61DE0592
Copy CRC 61DE0592
Track not present in AccurateRip database
Copy OK

Track 3

Filename F:\Ripped_CD's\Dans Dans\Zink (2021) [FLAC] (Unday Records 5414165124160)\03 - Blue Silver.wav

Peak level 97.3 %
Extraction speed 7.2 X
Track quality 100.0 %
Test CRC A7E05491
Copy CRC A7E05491
Track not present in AccurateRip database
Copy OK

Track 4

Filename F:\Ripped_CD's\Dans Dans\Zink (2021) [FLAC] (Unday Records 5414165124160)\04 - Anemone.wav

Peak level 97.5 %
Extraction speed 7.9 X
Track quality 100.0 %
Test CRC 5E1DE8BF
Copy CRC 5E1DE8BF
Track not present in AccurateRip database
Copy OK

Track 5

Filename F:\Ripped_CD's\Dans Dans\Zink (2021) [FLAC] (Unday Records 5414165124160)\05 - Sleeper.wav

Peak level 97.5 %
Extraction speed 8.1 X
Track quality 100.0 %
Test CRC BFBA7BE4
Copy CRC BFBA7BE4
Track not present in AccurateRip database
Copy OK

Track 6

Filename F:\Ripped_CD's\Dans Dans\Zink (2021) [FLAC] (Unday Records 5414165124160)\06 - Ravine.wav

Peak level 97.5 %
Extraction speed 9.3 X
Track quality 100.0 %
Test CRC 8B9CB7E2
Copy CRC 8B9CB7E2
Track not present in AccurateRip database
Copy OK

Track 7

Filename F:\Ripped_CD's\Dans Dans\Zink (2021) [FLAC] (Unday Records 5414165124160)\07 - Shell Star.wav

Peak level 97.5 %
Extraction speed 9.9 X
Track quality 100.0 %
Test CRC 51A05FAC
Copy CRC 51A05FAC
Track not present in AccurateRip database
Copy OK

Track 8

Filename F:\Ripped_CD's\Dans Dans\Zink (2021) [FLAC] (Unday Records 5414165124160)\08 - Wrist.wav

Peak level 97.5 %
Extraction speed 10.1 X
Track quality 100.0 %
Test CRC 6DFFDB2A
Copy CRC 6DFFDB2A
Track not present in AccurateRip database
Copy OK


None of the tracks are present in the AccurateRip database

No errors occurred

End of status report

–– CUETools DB Plugin V2.1.6

[CTDB TOCID: uwRJHzbXFT_ux_14Fe39hlfe544-] found
Submit result: uwRJHzbXFT_ux_14Fe39hlfe544- has been confirmed
Track | CTDB Status
1 | (6/6) Accurately ripped
2 | (6/6) Accurately ripped
3 | (6/6) Accurately ripped
4 | (6/6) Accurately ripped
5 | (6/6) Accurately ripped
6 | (6/6) Accurately ripped
7 | (6/6) Accurately ripped
8 | (6/6) Accurately ripped


==== Log checksum C252643BCA95B495201C41A467E5442EA194AC732298709851639EFF3FB7CF8B ====

Thanks to the Original ripper !