Subcategories

Dave Brubeck - Blue Rondo a la Turk (1982/2005)

Posted By: Domestos
Dave Brubeck - Blue Rondo a la Turk (1982/2005)

Dave Brubeck - Blue Rondo a la Turk (1982/2005)
EAC Rip | FLAC (tracks+.cue, log) ~ 310.92 Mb | 53:44 | Cover
Cool | Label: Delta Music - 26509

This radio broadcast of a 1982 Montreux Jazz Festival set featuring the Dave Brubeck Quartet has been issued by a number of different European bootleg labels, all with excellent sound but one glaring error: labeling the pianist's "(Open the Gates) Out of the Way of the People" as "Improvisation." In spite of its sketchy origin, this CD contains an excellent, well-recorded set of music, featuring clarinetist Bill Smith in one of his earliest appearances as a full-time member of the group in the early '80s after he replaced tenor saxophonist Jerry Bergonzi. Brubeck is clearly inspired by his reunion with his old friend (who was a part of the pianist's early octet and also took Paul Desmond's place on a pair of Brubeck albums decades earlier).

Brubeck and company devour his challenging blues "Tritonis," following it with his haunting, beautiful Oriental blues "Koto Song," in which Smith utilizes his digital delay to good effect. Chris Brubeck shows off his tremendous chops on bass trombone in both "Big Bad Basie" and "(What Did I Do to Be So) Black and Blue?." Drummer Randy Jones, who would go on to become the longest continuously serving sideman in the history of the Dave Brubeck Quartet, is showcased extensively in "Out of the Way of the People." The inevitable requests for "Take Five" and "Blue Rondo a la Turk" are obvious crowd pleasers. ~ AllMusic Review by Ken Dryden

Dave Brubeck - piano
Chris Brubeck - bass
Bill Smith - clarinet
Randy Jones - drums

Recorded at The Montreux Jazz Festival, Switzerland on July 22, 1982.

Track List:
01. Tritonis (Brubeck) - 7:37
02. Koto Song (Brubeck) - 9:47
03. Improvisation (Brubeck) - 6:01
04. Big Bad Basie (Brubeck) - 5:04
05. (What Did I Do to Be So) Black and Blue (Waller-Brooks) - 7:24
06. Take Five (Desmond) - 7:12
07. Benjamin Christopher David Brubeck (Brubeck) - 5:01
08. Blue Rondo a la Turk (Brubeck) - 5:38

Dave Brubeck - Blue Rondo a la Turk (1982/2005)

Exact Audio Copy V1.3 from 2. September 2016

EAC extraction logfile from 24. November 2017, 19:33

Dave Brubeck / Blue Rondo A La Turk

Used drive : HL-DT-STDVDRAM GH60N Adapter: 1 ID: 0

Read mode : Secure
Utilize accurate stream : Yes
Defeat audio cache : Yes
Make use of C2 pointers : No

Read offset correction : 667
Overread into Lead-In and Lead-Out : No
Fill up missing offset samples with silence : Yes
Delete leading and trailing silent blocks : No
Null samples used in CRC calculations : Yes
Used interface : Native Win32 interface for Win NT & 2000
Gap handling : Appended to previous track

Used output format : User Defined Encoder
Selected bitrate : 1024 kBit/s
Quality : High
Add ID3 tag : No
Command line compressor : C:\Program Files (x86)\Exact Audio Copy\Flac\flac.exe
Additional command line options : -8 -e -p -V -T "ARTIST=%artist%" -T "TITLE=%title%" -T "ALBUM=%albumtitle%" -T "DATE=%year%" -T "TRACKNUMBER=%tracknr%" -T "GENRE=%genre%" -T "PERFORMER=%albuminterpret%" -T "COMPOSER=%composer%" %haslyrics%–tag-from-file=LYRICS="%lyricsfile%"%haslyrics% -T "ALBUMARTIST=%albumartist%" -T "DISCNUMBER=%cdnumber%" -T "TOTALDISCS=%totalcds%" -T "TOTALTRACKS=%numtracks%" -T "COMMENT=%comment%" %source% -o %dest%

TOC of the extracted CD

Track | Start | Length | Start sector | End sector
––––––––––––––––––––––––––––-
1 | 0:00.00 | 7:36.43 | 0 | 34242
2 | 7:36.43 | 9:46.54 | 34243 | 78246
3 | 17:23.22 | 6:00.50 | 78247 | 105296
4 | 23:23.72 | 5:03.74 | 105297 | 128095
5 | 28:27.71 | 7:23.45 | 128096 | 161365
6 | 35:51.41 | 7:12.02 | 161366 | 193767
7 | 43:03.43 | 5:01.31 | 193768 | 216373
8 | 48:04.74 | 5:38.32 | 216374 | 241755

Track 1

Filename C:\Users\Sam\Desktop\Dave Brubeck 2002 Blue Turk A La Rondo\01 Tritonis.wav

Pre-gap length 0:00:02.00

Peak level 97.8 %
Extraction speed 1.2 X
Track quality 100.0 %
Test CRC 78228370
Copy CRC 78228370
Cannot be verified as accurate (confidence 4) [0F862602], AccurateRip returned [61D5F6E1] (AR v2)
Copy OK

Track 2

Filename C:\Users\Sam\Desktop\Dave Brubeck 2002 Blue Turk A La Rondo\02 Koto Song.wav

Pre-gap length 0:00:01.76

Peak level 91.2 %
Extraction speed 1.5 X
Track quality 100.0 %
Test CRC 41DDDD0E
Copy CRC 41DDDD0E
Cannot be verified as accurate (confidence 4) [90CECBE3], AccurateRip returned [4DB7FBF9] (AR v2)
Copy OK

Track 3

Filename C:\Users\Sam\Desktop\Dave Brubeck 2002 Blue Turk A La Rondo\03 Improvisation.wav

Pre-gap length 0:00:01.76

Peak level 99.5 %
Extraction speed 1.8 X
Track quality 100.0 %
Test CRC 21C82B60
Copy CRC 21C82B60
Cannot be verified as accurate (confidence 4) [4BB0F35E], AccurateRip returned [F8932559] (AR v2)
Copy OK

Track 4

Filename C:\Users\Sam\Desktop\Dave Brubeck 2002 Blue Turk A La Rondo\04 Big Bad Basie.wav

Pre-gap length 0:00:01.76

Peak level 98.3 %
Extraction speed 1.8 X
Track quality 100.0 %
Test CRC 24152B42
Copy CRC 24152B42
Cannot be verified as accurate (confidence 4) [EFA3E8A4], AccurateRip returned [77F23953] (AR v2)
Copy OK

Track 5

Filename C:\Users\Sam\Desktop\Dave Brubeck 2002 Blue Turk A La Rondo\05 (What Did I Do To Be So) Black And Blue.wav

Pre-gap length 0:00:01.76

Peak level 97.0 %
Extraction speed 2.1 X
Track quality 100.0 %
Test CRC 88C9175E
Copy CRC 88C9175E
Cannot be verified as accurate (confidence 4) [31027D8F], AccurateRip returned [3F08F2C4] (AR v2)
Copy OK

Track 6

Filename C:\Users\Sam\Desktop\Dave Brubeck 2002 Blue Turk A La Rondo\06 Take Five.wav

Pre-gap length 0:00:01.76

Peak level 99.0 %
Extraction speed 2.2 X
Track quality 100.0 %
Test CRC F10392A5
Copy CRC F10392A5
Cannot be verified as accurate (confidence 4) [32E84AD1], AccurateRip returned [CCBF08DF] (AR v2)
Copy OK

Track 7

Filename C:\Users\Sam\Desktop\Dave Brubeck 2002 Blue Turk A La Rondo\07 Benjamin Christopher David Brubeck.wav

Pre-gap length 0:00:01.76

Peak level 98.9 %
Extraction speed 2.0 X
Track quality 99.9 %
Test CRC 715AC431
Copy CRC 715AC431
Cannot be verified as accurate (confidence 4) [604180E8], AccurateRip returned [B4F286C2] (AR v2)
Copy OK

Track 8

Filename C:\Users\Sam\Desktop\Dave Brubeck 2002 Blue Turk A La Rondo\08 Blue Rondo A La Turk.wav

Pre-gap length 0:00:01.77

Peak level 97.9 %
Extraction speed 2.4 X
Track quality 100.0 %
Test CRC 1E5F2A38
Copy CRC 1E5F2A38
Cannot be verified as accurate (confidence 4) [1AB02572], AccurateRip returned [76C7BBB8] (AR v2)
Copy OK

No tracks could be verified as accurate
You may have a different pressing from the one(s) in the database

No errors occurred

End of status report

–– CUETools DB Plugin V2.1.6

[CTDB TOCID: L5KsKTnGecNj_Mvki4GBDkwwTWE-] found
Submit result: L5KsKTnGecNj_Mvki4GBDkwwTWE- has been confirmed
Track | CTDB Status
1 | (5/6) Accurately ripped
2 | (5/6) Accurately ripped
3 | (6/6) Accurately ripped
4 | (6/6) Accurately ripped
5 | (6/6) Accurately ripped
6 | (6/6) Accurately ripped
7 | (5/6) Accurately ripped
8 | (6/6) Accurately ripped

==== Log checksum 6B7AAC2A76D9C07B79DE08FA512CB860A837F3FDB89F966A8D6B6534C81663FD ====

All thanks go to the wilgarasam

More Music in My Blog
Follow My RSS Channel