Subcategories

The Dave Brubeck Quartet - Blue Rondo (1986) {Concord Jazz CCD-4317}

Posted By: ruskaval
The Dave Brubeck Quartet - Blue Rondo (1986) {Concord Jazz CCD-4317}

The Dave Brubeck Quartet - Blue Rondo (1986) {Concord Jazz CCD-4317}
EAC rip (secure mode) | FLAC (tracks)+CUE+LOG -> 237 Mb | MP3 @320 -> 105 Mb
Full Artwork @ 300 dpi (png) -> 23 Mb | 5% repair rar
© 1986-87 Concord Jazz | CCD-4317
Jazz / Cool / West Coast Jazz / Piano

The 1987 edition of the Brubeck Quartet featured pianist Brubeck, his son Chris on electric bass and bass trombone, clarinetist Bill Smith and drummer Randy Jones. In addition to remakes of "Blue Rondo à la Turk," "Strange Meadowlark" and "Swing Bells," the leader contributed six new originals including "I See, Satie" and a tribute to Dizzy Gillespie and Stan Getz called "Dizzy's Dream." Bill Smith, who uses electronics with taste on his clarinet during a few songs, has long been a major asset to the later Brubeck Quartets. This is one of their better Concord CDs.
The Dave Brubeck Quartet - Blue Rondo (1986) {Concord Jazz CCD-4317}


The Dave Brubeck Quartet:

Dave Brubeck (piano)
Bill Smith (clarinet)
Chris Brubeck (bass trombone, electric bass)
Randy Jones (drums)

Recorded at Russian Hill Recording, San Francisco, California in November 1986. Includes liner notes by Leonard Maltin.

Tracklist:

01 - How does your garden grow 5:55
02 - Festival hall 5:55
03 - Easy as you go 3:15
04 - Blue rondo a la turk 7:30
05 - Dizzy's dream 4:08
06 - I see, Satie 3:45
07 - Swing bells 3:30
08 - Srange meadowlark 5:05
09 - Elana joy 5:13

Exact Audio Copy V1.0 beta 1 from 15. November 2010

EAC extraction logfile from 23. April 2011, 21:31

The Dave Brubeck Quartet / Blue Rondo

Used drive : HL-DT-STDVDRAM_GT30N Adapter: 1 ID: 0

Read mode : Secure
Utilize accurate stream : Yes
Defeat audio cache : Yes
Make use of C2 pointers : No

Read offset correction : 103
Overread into Lead-In and Lead-Out : No
Fill up missing offset samples with silence : Yes
Delete leading and trailing silent blocks : No
Null samples used in CRC calculations : Yes
Used interface : Native Win32 interface for Win NT & 2000
Gap handling : Appended to previous track

Used output format : User Defined Encoder
Selected bitrate : 640 kBit/s
Quality : High
Add ID3 tag : No
Command line compressor : C:\Program Files\Exact Audio Copy 1.0beta1\Flac\flac.exe
Additional command line options : -8 -V -T "ARTIST=%a" -T "TITLE=%t" -T "ALBUM=%g" -T "DATE=%y" -T "TRACKNUMBER=%n" -T "TOTALTRACKS=%x" -T "GENRE=%m" -T "ALBUMARTIST=%v" -T "ALBUM ARTIST=%v" -T "COMMENT=EAC Secure Mode, Test & Copy, AccurateRip, FLAC -8" %s


TOC of the extracted CD

Track | Start | Length | Start sector | End sector
––––––––––––––––––––––––––––-
1 | 0:00.00 | 5:56.57 | 0 | 26756
2 | 5:56.57 | 5:58.68 | 26757 | 53674
3 | 11:55.50 | 3:19.12 | 53675 | 68611
4 | 15:14.62 | 7:36.33 | 68612 | 102844
5 | 22:51.20 | 4:12.60 | 102845 | 121804
6 | 27:04.05 | 3:49.32 | 121805 | 139011
7 | 30:53.37 | 3:34.35 | 139012 | 155096
8 | 34:27.72 | 5:02.23 | 155097 | 177769
9 | 39:30.20 | 5:13.42 | 177770 | 201286


Track 1

Filename I:\my upload\The Dave Brubeck Quartet - Blue Rondo (1986) [FLAC] {Concord Jazz, CCD-4317}\01 - How does your garden grow.wav

Pre-gap length 0:00:02.00

Peak level 58.0 %
Extraction speed 1.3 X
Track quality 100.0 %
Test CRC 83B74864
Copy CRC 83B74864
Cannot be verified as accurate (confidence 1) [2B9BE3FD], AccurateRip returned [7D9EDE6C]
Copy OK

Track 2

Filename I:\my upload\The Dave Brubeck Quartet - Blue Rondo (1986) [FLAC] {Concord Jazz, CCD-4317}\02 - Festival hall.wav

Pre-gap length 0:00:01.37

Peak level 57.7 %
Extraction speed 1.5 X
Track quality 100.0 %
Test CRC C3053715
Copy CRC C3053715
Cannot be verified as accurate (confidence 1) [0AC1E6FD], AccurateRip returned [51CC95B8]
Copy OK

Track 3

Filename I:\my upload\The Dave Brubeck Quartet - Blue Rondo (1986) [FLAC] {Concord Jazz, CCD-4317}\03 - Easy as you go.wav

Pre-gap length 0:00:02.23

Peak level 35.3 %
Extraction speed 1.5 X
Track quality 100.0 %
Test CRC E8253DA5
Copy CRC E8253DA5
Cannot be verified as accurate (confidence 1) [FD6DD827], AccurateRip returned [202952BE]
Copy OK

Track 4

Filename I:\my upload\The Dave Brubeck Quartet - Blue Rondo (1986) [FLAC] {Concord Jazz, CCD-4317}\04 - Blue rondo a la turk.wav

Pre-gap length 0:00:03.30

Peak level 100.0 %
Extraction speed 1.9 X
Track quality 100.0 %
Test CRC FFCCA3DA
Copy CRC FFCCA3DA
Cannot be verified as accurate (confidence 1) [F3824E6C], AccurateRip returned [4DE38AB4]
Copy OK

Track 5

Filename I:\my upload\The Dave Brubeck Quartet - Blue Rondo (1986) [FLAC] {Concord Jazz, CCD-4317}\05 - Dizzy's dream.wav

Pre-gap length 0:00:04.00

Peak level 66.8 %
Extraction speed 1.9 X
Track quality 100.0 %
Test CRC A9C98649
Copy CRC A9C98649
Cannot be verified as accurate (confidence 1) [9351137C], AccurateRip returned [A5161FD2]
Copy OK

Track 6

Filename I:\my upload\The Dave Brubeck Quartet - Blue Rondo (1986) [FLAC] {Concord Jazz, CCD-4317}\06 - I see, Satie.wav

Pre-gap length 0:00:02.60

Peak level 30.7 %
Extraction speed 2.0 X
Track quality 100.0 %
Test CRC 3ED6AAF0
Copy CRC 3ED6AAF0
Cannot be verified as accurate (confidence 1) [FF5949B7], AccurateRip returned [04831058]
Copy OK

Track 7

Filename I:\my upload\The Dave Brubeck Quartet - Blue Rondo (1986) [FLAC] {Concord Jazz, CCD-4317}\07 - Swing bells.wav

Pre-gap length 0:00:03.37

Peak level 62.2 %
Extraction speed 2.0 X
Track quality 100.0 %
Test CRC 3D876746
Copy CRC 3D876746
Cannot be verified as accurate (confidence 1) [6E108184], AccurateRip returned [F41C4219]
Copy OK

Track 8

Filename I:\my upload\The Dave Brubeck Quartet - Blue Rondo (1986) [FLAC] {Concord Jazz, CCD-4317}\08 - Srange meadowlark.wav

Pre-gap length 0:00:03.02

Peak level 37.6 %
Extraction speed 2.2 X
Track quality 100.0 %
Test CRC 929C58EF
Copy CRC 929C58EF
Cannot be verified as accurate (confidence 1) [5A46D9C8], AccurateRip returned [C0DFA916]
Copy OK

Track 9

Filename I:\my upload\The Dave Brubeck Quartet - Blue Rondo (1986) [FLAC] {Concord Jazz, CCD-4317}\09 - Elana joy.wav

Pre-gap length 0:00:01.18

Peak level 70.4 %
Extraction speed 2.3 X
Track quality 100.0 %
Test CRC 8DDEACA4
Copy CRC 8DDEACA4
Cannot be verified as accurate (confidence 1) [B0D4DB98], AccurateRip returned [B9B80D71]
Copy OK


No tracks could be verified as accurate
You may have a different pressing from the one(s) in the database

No errors occurred

End of status report

==== Log checksum AAE912DE5D89CBC14B8B4005737D24FDF1B0C16F87CC0C53D7ADC3E01AEBE850 ====


The Dave Brubeck Quartet - Blue Rondo (1986) {Concord Jazz CCD-4317}

The Dave Brubeck Quartet - Blue Rondo (1986) {Concord Jazz CCD-4317}



===