Subcategories

Dave Douglas Quintet - Brazen Heart (2015) {Greenleaf Music GRE-CD-1044}

Posted By: ruskaval
Dave Douglas Quintet - Brazen Heart (2015) {Greenleaf Music GRE-CD-1044}

Dave Douglas Quintet - Brazen Heart (2015) {Greenleaf Music GRE-CD-1044}
EAC rip (secure mode) | FLAC (tracks)+CUE+LOG -> 403 Mb | MP3 @320 -> 152 Mb
Full Artwork @ 300 dpi (jpg) -> 8 Mb | 5% repair rar
© 2015 Greenleaf Music | GRE-CD-1044
Jazz / Modern Jazz / Post Bop / Modern Creative / Trumpet

A few years ago the trumpeter-composer Dave Douglas released “Be Still,” a beautifully poignant album made in response to the loss of his mother. The album also formally unveiled his new band, a young quintet with the creative resources to hit the ground running. “Brazen Heart,” Mr. Douglas’s assured new release, showcases the same group at a more advanced stage in its evolution, as he again tries to transcend grief with art.

The album bears a dedication to Mr. Douglas’s older brother, Damon, who died in June after a long fight with cancer; Mr. Douglas made this album months before his brother’s death, in a style that proposes something flintier than an elegy. As on “Be Still,” there are soft-spoken interpretations of traditional hymns — the spirituals “Deep River” and “There Is a Balm in Gilead” — without a vocalist. (“Be Still” featured Aoife O’Donovan, winningly.)

Mr. Douglas is famously inclined to work on multiple projects at once: “High Risk,” his mindfully atmospheric fusion album with the electronic artist Shigeto, appeared just months ago. But Mr. Douglas has long been particularly drawn to the acoustic postbop quintet as a delivery system for his music. His partners in this one are the saxophonist Jon Irabagon, the pianist Matt Mitchell, the bassist Linda Oh and the drummer Rudy Royston. (They’ll play the Jazz Standard, Nov. 19-22.)

That these players have developed a vital shorthand, a band dialect, should be no surprise. Still, “Brazen Heart” clears a high bar for chemistry, starting with the bond between Mr. Douglas, with his jabbing chatter, and Mr. Irabagon, with his alert and gusty control. This front line works by cooperative tension with the rhythm section; at times, as on tracks like “Wake Up Claire” or “Inure Phase,” their outflow runs hot and cool at the same time.
Dave Douglas Quintet - Brazen Heart (2015) {Greenleaf Music GRE-CD-1044}


AAJ INFO
Greenleaf Music INFO


Personnel:
Dave Douglas - trumpet and compositions
Jon Irabagon - tenor saxophone
Matt Mitchell - piano
Linda Oh - bass
Rudy Royston - drums

tracklist:
01 - Brazen Heart
02 - Deep River
03 - Hawaiian Punch
04 - Inure Phase
05 - Lone Wolf
06 - Miracle Gro
07 - Ocean Spray
08 - Pyrrhic Apology
09 - There Is A Balm In Gilead
10 - Variable Current
11 - Wake Up Claire

Exact Audio Copy V1.1 from 23. June 2015

EAC extraction logfile from 28. January 2016, 21:56

Dave Douglas / Brazen Heart

Used drive : MATSHITADVD+-RW SW830 Adapter: 1 ID: 0

Read mode : Secure
Utilize accurate stream : Yes
Defeat audio cache : Yes
Make use of C2 pointers : No

Read offset correction : 6
Overread into Lead-In and Lead-Out : No
Fill up missing offset samples with silence : Yes
Delete leading and trailing silent blocks : No
Null samples used in CRC calculations : Yes
Used interface : Native Win32 interface for Win NT & 2000
Gap handling : Appended to previous track

Used output format : User Defined Encoder
Selected bitrate : 896 kBit/s
Quality : High
Add ID3 tag : No
Command line compressor : C:\Program Files (x86)\Exact Audio Copy\Flac\flac.exe
Additional command line options : -8 -V -T "ARTIST=%artist%" -T "TITLE=%title%" -T "ALBUM=%albumtitle%" -T "DATE=%year%" -T "TRACKNUMBER=%tracknr%" -T "TOTALTRACKS=%numtracks%" -T "GENRE=%genre%" -T "ALBUMARTIST=%albumartist%" -T "ALBUM ARTIST=%albumartist%" -T "COMMENT=EAC Secure Mode, Test & Copy, AccurateRip, FLAC -8" %source%


TOC of the extracted CD

Track | Start | Length | Start sector | End sector
––––––––––––––––––––––––––––-
1 | 0:00.00 | 7:23.49 | 0 | 33273
2 | 7:23.49 | 3:58.62 | 33274 | 51185
3 | 11:22.36 | 7:31.65 | 51186 | 85075
4 | 18:54.26 | 5:38.00 | 85076 | 110425
5 | 24:32.26 | 2:55.44 | 110426 | 123594
6 | 27:27.70 | 8:16.57 | 123595 | 160851
7 | 35:44.52 | 5:23.51 | 160852 | 185127
8 | 41:08.28 | 7:34.17 | 185128 | 219194
9 | 48:42.45 | 6:23.04 | 219195 | 247923
10 | 55:05.49 | 4:21.58 | 247924 | 267556
11 | 59:27.32 | 5:33.01 | 267557 | 292532


Track 1

Filename G:\New Rips\Dave Douglas - Brazen Heart (2015) [FLAC]\01 - Brazen Heart.wav

Pre-gap length 0:00:02.00

Peak level 94.6 %
Extraction speed 1.9 X
Track quality 100.0 %
Test CRC DC92C6AE
Copy CRC DC92C6AE
Accurately ripped (confidence 3) [23F9BE11] (AR v2)
Copy OK

Track 2

Filename G:\New Rips\Dave Douglas - Brazen Heart (2015) [FLAC]\02 - Deep River.wav

Peak level 96.4 %
Extraction speed 2.1 X
Track quality 100.0 %
Test CRC 4CECD4D7
Copy CRC 4CECD4D7
Accurately ripped (confidence 3) [ABA6FB7A] (AR v2)
Copy OK

Track 3

Filename G:\New Rips\Dave Douglas - Brazen Heart (2015) [FLAC]\03 - Hawaiian Punch.wav

Peak level 93.7 %
Extraction speed 2.1 X
Track quality 99.9 %
Test CRC 7C37BE7D
Copy CRC 7C37BE7D
Accurately ripped (confidence 3) [5A85E9E6] (AR v2)
Copy OK

Track 4

Filename G:\New Rips\Dave Douglas - Brazen Heart (2015) [FLAC]\04 - Inure Phase.wav

Peak level 96.8 %
Extraction speed 2.1 X
Track quality 99.9 %
Test CRC 1C80F84D
Copy CRC 1C80F84D
Accurately ripped (confidence 3) [2D04C97C] (AR v2)
Copy OK

Track 5

Filename G:\New Rips\Dave Douglas - Brazen Heart (2015) [FLAC]\05 - Lone Wolf.wav

Peak level 94.8 %
Extraction speed 1.8 X
Track quality 99.9 %
Test CRC 56748223
Copy CRC 56748223
Accurately ripped (confidence 3) [E7AD6864] (AR v2)
Copy OK

Track 6

Filename G:\New Rips\Dave Douglas - Brazen Heart (2015) [FLAC]\06 - Miracle Gro.wav

Peak level 94.5 %
Extraction speed 3.0 X
Track quality 100.0 %
Test CRC 79B3527C
Copy CRC 79B3527C
Accurately ripped (confidence 3) [69F782BB] (AR v2)
Copy OK

Track 7

Filename G:\New Rips\Dave Douglas - Brazen Heart (2015) [FLAC]\07 - Ocean Spray.wav

Peak level 93.9 %
Extraction speed 2.5 X
Track quality 99.9 %
Test CRC 5BDF3C3F
Copy CRC 5BDF3C3F
Accurately ripped (confidence 3) [335356E7] (AR v2)
Copy OK

Track 8

Filename G:\New Rips\Dave Douglas - Brazen Heart (2015) [FLAC]\08 - Pyrrhic Apology.wav

Peak level 94.8 %
Extraction speed 3.4 X
Track quality 100.0 %
Test CRC 9230A6E4
Copy CRC 9230A6E4
Accurately ripped (confidence 3) [01904346] (AR v2)
Copy OK

Track 9

Filename G:\New Rips\Dave Douglas - Brazen Heart (2015) [FLAC]\09 - There Is A Balm In Gilead.wav

Peak level 94.5 %
Extraction speed 3.5 X
Track quality 100.0 %
Test CRC 9966BD10
Copy CRC 9966BD10
Accurately ripped (confidence 3) [0845B6F0] (AR v2)
Copy OK

Track 10

Filename G:\New Rips\Dave Douglas - Brazen Heart (2015) [FLAC]\10 - Variable Current.wav

Peak level 93.2 %
Extraction speed 3.5 X
Track quality 100.0 %
Test CRC 3B9EAC69
Copy CRC 3B9EAC69
Accurately ripped (confidence 3) [4EBFEBE9] (AR v2)
Copy OK

Track 11

Filename G:\New Rips\Dave Douglas - Brazen Heart (2015) [FLAC]\11 - Wake Up Claire.wav

Peak level 93.9 %
Extraction speed 3.0 X
Track quality 99.9 %
Test CRC B7E6D1E3
Copy CRC B7E6D1E3
Accurately ripped (confidence 3) [3195EDEC] (AR v2)
Copy OK


All tracks accurately ripped

No errors occurred

End of status report

–– CUETools DB Plugin V2.1.6

[CTDB TOCID: ClS9nkuR4bR.O8gwXoC7t.s.HXs-] found
Submit result: ClS9nkuR4bR.O8gwXoC7t.s.HXs- has been confirmed
Track | CTDB Status
1 | (4/4) Accurately ripped
2 | (4/4) Accurately ripped
3 | (4/4) Accurately ripped
4 | (4/4) Accurately ripped
5 | (4/4) Accurately ripped
6 | (4/4) Accurately ripped
7 | (4/4) Accurately ripped
8 | (4/4) Accurately ripped
9 | (4/4) Accurately ripped
10 | (4/4) Accurately ripped
11 | (4/4) Accurately ripped


==== Log checksum B045EF10A99B25ED38F8569E91B90D8B260C97A3D7BD8494D61B3E76EAC2D964 ====


Dave Douglas Quintet - Brazen Heart (2015) {Greenleaf Music GRE-CD-1044}

Dave Douglas Quintet - Brazen Heart (2015) {Greenleaf Music GRE-CD-1044}


All thanks goes to the original releaser!