Subcategories

Dave Holland Quintet - Jumpin' In (1983) {ECM 1269}

Posted By: ruskaval
Dave Holland Quintet - Jumpin' In (1983) {ECM 1269}

Dave Holland Quintet - Jumpin' In (1983) {ECM 1269}
EAC rip (secure mode) | FLAC (tracks)+CUE+LOG -> 258 Mb | MP3 @320 -> 116 Mb
Full Artwork @ 300 dpi (jpg) -> 23 Mb | 5% repair rar
© 1983 ECM Records | ECM 1269
Jazz / Post Bop / Avant-Garde Jazz / Modern Creative / Bass

Bassist Dave Holland leads one of his most stimulating groups on this superlative quintet date. With the young Steve Coleman on alto and flute, trumpet great Kenny Wheeler, trombonist Julian Priester, and drummer Steve Ellington in the band, Holland had a particularly creative group of musicians in which to interpret and stretch out his six originals; Coleman also contributed one composition. This set, which has plenty of variety in moods, tone, colors, and styles, is one of Holland's better recordings.

Jumpin’ In isn’t just a title. It’s a call to action. So let’s get to it. The eponymous opener is a veritable résumé, a formative and ever-growing catalogue of accomplishments through which one can view the development of an artist at work. Only here, we experience that development in real time. It is clear from the first moments that Dave Holland is a step above not only so many other jazz bassists, but also composers in bringing freshness to his music. In the absence of a piano or mallet instrument, acceptance into the Quintet firm requires an equally impressive CV (that stands for “Consummate Virtuosity”) to pull it off right. Like a fine pointillist drawing, each scene has no definite border, but rather coheres through the openness of the image. Holland seems to have always had a soft spot for great trombonists, and the inclusion of Julian Priester was a masterstroke in this regard, for his anchorage is nearly as fresh as Holland’s throughout. Drummer Steve Ellington and a young Steve Coleman on alto and flute complete a powerful improvisational picture lit by Kenny Wheeler’s sideways trumpeting. Holland’s compositional sensitivity reveals itself in “First Snow,” a gorgeous concept for a jazz tune, and equally so in its execution. It is also a potent example of Wheeler’s craft and the fine balance it achieves between delicacy and piercing evocation. Coleman offers up the album’s only non-Holland tune with “The Dragon And The Samurai.” This respectable palette cleanser boasts some fabulous braiding from the three horns and pulls us down a bumpy road to “New-One,” Priester’s time to shine. “Sunrise” flags the elemental themes that are the album’s touchstones, while “Shadow Dance” spins a cinematic tale that is equal parts Spy Hunter and melodrama. The tongue-in-cheek “You I Love” shows the horn players at their best and plays us out on a whim.

Jumpin’ In bristles with energies sure to work their way into your tapping foot and nodding head. It is also a fitting testament to Charles Mingus, to whom the album is lovingly dedicated.

Musicians:
Dave Holland bass, cello
Steve Coleman alto saxophone, flute
Kenny Wheeler trumpet, pocket trumpet, cornet, fluegelhorn
Julian Priester trombone
Steve Ellington drums

Recorded October 1983 at Tonstudio Bauer, Ludwigsburg
Engineer: Martin Wieland
Produced by Manfred Eicher


tracklist:
01 - Jumpin' In
02 - First Snow
03 - The Dragon And The Samurai
04 - New-One
05 - Sunrise
06 - Shadow Dance
07 - You I Love

Exact Audio Copy V1.3 from 2. September 2016

EAC extraction logfile from 5. August 2017, 22:38

Dave Holland Quintett / Jumpin' In

Used drive : Optiarc DVDRWBD BC-5540H Adapter: 1 ID: 0

Read mode : Secure
Utilize accurate stream : Yes
Defeat audio cache : Yes
Make use of C2 pointers : No

Read offset correction : 48
Overread into Lead-In and Lead-Out : No
Fill up missing offset samples with silence : Yes
Delete leading and trailing silent blocks : No
Null samples used in CRC calculations : Yes
Used interface : Native Win32 interface for Win NT & 2000
Gap handling : Appended to previous track

Used output format : User Defined Encoder
Selected bitrate : 1024 kBit/s
Quality : High
Add ID3 tag : No
Command line compressor : C:\Program Files (x86)\Exact Audio Copy\Flac\flac.exe
Additional command line options : -8 -V -T "ARTIST=%artist%" -T "TITLE=%title%" -T "ALBUM=%albumtitle%" -T "DATE=%year%" -T "TRACKNUMBER=%tracknr%" -T "GENRE=%genre%" -T "PERFORMER=%albuminterpret%" -T "COMPOSER=%composer%" %haslyrics%–tag-from-file=LYRICS="%lyricsfile%"%haslyrics% -T "ALBUMARTIST=%albumartist%" -T "DISCNUMBER=%cdnumber%" -T "TOTALDISCS=%totalcds%" -T "TOTALTRACKS=%numtracks%" -T "COMMENT=%comment%" %source% -o %dest%


TOC of the extracted CD

Track | Start | Length | Start sector | End sector
––––––––––––––––––––––––––––-
1 | 0:00.32 | 7:47.13 | 32 | 35069
2 | 7:47.45 | 6:35.60 | 35070 | 64754
3 | 14:23.30 | 8:30.47 | 64755 | 103051
4 | 22:54.02 | 7:41.03 | 103052 | 137629
5 | 30:35.05 | 5:31.70 | 137630 | 162524
6 | 36:07.00 | 5:27.05 | 162525 | 187054
7 | 41:34.05 | 7:56.30 | 187055 | 222784


Track 1

Filename C:\Dave Holland Quintett - Jumpin' In (1983) [FLAC]\01 - Jumpin' In.wav

Pre-gap length 0:00:02.42

Peak level 60.4 %
Extraction speed 10.9 X
Track quality 100.0 %
Test CRC 479FC9BA
Copy CRC 479FC9BA
Accurately ripped (confidence 18) [5EF0580D] (AR v2)
Copy OK

Track 2

Filename C:\Dave Holland Quintett - Jumpin' In (1983) [FLAC]\02 - First Snow.wav

Pre-gap length 0:00:05.46

Peak level 69.3 %
Extraction speed 12.6 X
Track quality 100.0 %
Test CRC 982D6675
Copy CRC 982D6675
Accurately ripped (confidence 18) [75B7C8A6] (AR v2)
Copy OK

Track 3

Filename C:\Dave Holland Quintett - Jumpin' In (1983) [FLAC]\03 - The Dragon And The Samurai.wav

Pre-gap length 0:00:07.60

Peak level 68.3 %
Extraction speed 13.6 X
Track quality 99.9 %
Test CRC A92DB451
Copy CRC A92DB451
Accurately ripped (confidence 18) [86E1FF05] (AR v2)
Copy OK

Track 4

Filename C:\Dave Holland Quintett - Jumpin' In (1983) [FLAC]\04 - New-One.wav

Pre-gap length 0:00:04.98

Peak level 78.6 %
Extraction speed 15.7 X
Track quality 100.0 %
Test CRC 178D3230
Copy CRC 178D3230
Accurately ripped (confidence 18) [783AFA26] (AR v2)
Copy OK

Track 5

Filename C:\Dave Holland Quintett - Jumpin' In (1983) [FLAC]\05 - Sunrise.wav

Pre-gap length 0:00:03.89

Peak level 44.5 %
Extraction speed 16.3 X
Track quality 100.0 %
Test CRC 5892F42E
Copy CRC 5892F42E
Accurately ripped (confidence 18) [C8830FF4] (AR v2)
Copy OK

Track 6

Filename C:\Dave Holland Quintett - Jumpin' In (1983) [FLAC]\06 - Shadow Dance.wav

Pre-gap length 0:00:05.13

Peak level 77.9 %
Extraction speed 16.9 X
Track quality 100.0 %
Test CRC 745A46C2
Copy CRC 745A46C2
Accurately ripped (confidence 18) [9123F1EB] (AR v2)
Copy OK

Track 7

Filename C:\Dave Holland Quintett - Jumpin' In (1983) [FLAC]\07 - You I Love.wav

Pre-gap length 0:00:04.82

Peak level 78.1 %
Extraction speed 17.7 X
Track quality 99.9 %
Test CRC 63266B92
Copy CRC 63266B92
Accurately ripped (confidence 17) [B0BE5058] (AR v2)
Copy OK


All tracks accurately ripped

No errors occurred

End of status report

–– CUETools DB Plugin V2.1.6

[CTDB TOCID: _LrpcO0JHm57_W493o3gsIb_7jY-] found
Submit result: already submitted
Track | CTDB Status
1 | (22/23) Accurately ripped
2 | (23/23) Accurately ripped
3 | (23/23) Accurately ripped
4 | (23/23) Accurately ripped
5 | (23/23) Accurately ripped
6 | (23/23) Accurately ripped
7 | (23/23) Accurately ripped


==== Log checksum ABDE4BB872D61E932D57BFDAF408792C08E9B26C99DE46B202E64A696F62E5BB ====


Dave Holland Quintet - Jumpin' In (1983) {ECM 1269}

Dave Holland Quintet - Jumpin' In (1983) {ECM 1269}



===