Subcategories

David Naiditch, Gonzalo Bergara, & Pat Cloud - Douce Ambiance: Gypsy Jazz Classics (2012)

Posted By: Domestos
David Naiditch, Gonzalo Bergara, & Pat Cloud - Douce Ambiance: Gypsy Jazz Classics (2012)

David Naiditch, Gonzalo Bergara, & Pat Cloud - Douce Ambiance: Gypsy Jazz Classics (2012)
EAC Rip | FLAC (image+.cue, log) ~ 337.15 Mb | 56:45 | Cover
Gypsy Jazz, Swing | Country: USA | Label: Naiditch Productions - 884501657952

Virtuoso renditions of Gypsy jazz classics, featuring the melodic chromatic harmonica jazz of David Naiditch, the fiery guitar lines of Gonzalo Bergara, and the unmatched 5-string banjo playing of the legendary Pat Cloud.

On this most recent release from the stylistically-diverse chromatic harmonica master David Naiditch, he comes out swinging in his quintet with a spritely accordionesque tone, then he doubles, for a sound like horns, and then, finally, gives soaring string-like runs a la Grappelli. Suddenly Gonzalo Bergara comes in with a Django-esque cascade of guitar notes, above the Paris-cobblestone-solid solid rhythm section of Jeffrey Raidaich s guitar and Brian Netzley s bass, and in that first song you re transported to a manouche jam at a smokey café in the 14th arrondisement of Paris! When Pat Cloud s 5-string banjo chimes in to the mix, you re now in the provinces, with sunflowers and fresh red wine. With slight and tasty detours to the States for some Gershwin, and to Spain for a bossa nova, one arrives finally at Gonzalo s Castle, guitarist Bergara s stately, yet comfy-like-a- blanket, homage to the magical, cinematic world of Gypsy music. It s 2012, but it feels like a fresh day in 1936, what a treat! This is an album to play while you're - doing anything! Douce Ambience means sweet atmosphere, this is it. The whole ensemble is spot on and at ease, but it s the chromatic harmonica that really is at the core of this set. And although chromatic harp, in the hands of lesser players, can often sound like technical note-chasing, here Naiditch s easy, animated chromatic brings life to old classics and a few newer originals. If this album hasn t put you in a Douce Ambience, check your pulse! –-Dave Fertig, Pasadena

Track List:
01. Tchavolo Swing \ Tchavolo Schmitt - 3:35
02. Nuages \ Django Reinhardt - 3:55
03. For Sephora \ Stochelo Rosenberg - 3:16
04. Micro \ Django Reinhardt - 4:01
05. Blue Drag \ Django Reinhardt - 6:05
06. Oh, Lady Be Good \ George Gershwin - 4:00
07. Djangology \ Django Reinhardt - 2:55
08. Hungaria \ Django Reinhardt - 3:36
09. Tears \ Django Reinhardt - 4:14
10. Swing Gitane \ Django Reinhardt - 2:16
11. Bossa Dorado \ Dorado Schmitt - 4:31
12. Swing 48 \ Django Reinhardt - 3:01
13. Douce Ambiance \ Django Reinhardt - 3:54
14. Noto Swing \ Lulu Reinhardt - 3:32
15. Gonzalo's Castle \ Gonzalo Bergara - 3:55

David Naiditch - chromatic harmonica
Gonzalo Bergara - guitar
Pat Cloud - banjo
Jtffrey Radaich - rhythm guitar
Brian Netzley - upright bass

Exact Audio Copy V1.2 from 12. August 2016

EAC extraction logfile from 14. January 2018, 0:47

D. Naiditch, G. Bergara & P. Cloud / Douce Ambiance - Gypsy Jazz Cassics

Used drive : SlimtypeDVD A DA8A5SH Adapter: 1 ID: 0

Read mode : Secure
Utilize accurate stream : Yes
Defeat audio cache : Yes
Make use of C2 pointers : No

Read offset correction : 6
Overread into Lead-In and Lead-Out : No
Fill up missing offset samples with silence : Yes
Delete leading and trailing silent blocks : No
Null samples used in CRC calculations : Yes
Used interface : Native Win32 interface for Win NT & 2000

Used output format : User Defined Encoder
Selected bitrate : 896 kBit/s
Quality : High
Add ID3 tag : No
Command line compressor : D:\EAC\App\EAC\FLAC\FLAC.EXE
Additional command line options : -V -6 -T "Genre=%genre%" -T "Artist=%artist%" -T "Title=%title%" -T "Album=%albumtitle%" -T "Date=%year%" -T "Tracknumber=%tracknr%" -T "Comment=%comment%" %source%

TOC of the extracted CD

Track | Start | Length | Start sector | End sector
––––––––––––––––––––––––––––-
1 | 0:00.00 | 3:34.41 | 0 | 16090
2 | 3:34.41 | 3:54.63 | 16091 | 33703
3 | 7:29.29 | 3:16.02 | 33704 | 48405
4 | 10:45.31 | 4:00.57 | 48406 | 66462
5 | 14:46.13 | 6:05.24 | 66463 | 93861
6 | 20:51.37 | 3:59.56 | 93862 | 111842
7 | 24:51.18 | 2:54.73 | 111843 | 124965
8 | 27:46.16 | 3:36.09 | 124966 | 141174
9 | 31:22.25 | 4:13.49 | 141175 | 160198
10 | 35:35.74 | 2:16.32 | 160199 | 170430
11 | 37:52.31 | 4:30.53 | 170431 | 190733
12 | 42:23.09 | 3:00.74 | 190734 | 204307
13 | 45:24.08 | 3:54.30 | 204308 | 221887
14 | 49:18.38 | 3:31.62 | 221888 | 237774
15 | 52:50.25 | 3:54.57 | 237775 | 255381

Range status and errors

Selected range

Filename D:\Music\Douce Ambiance - Gypsy Jazz Classics\D. Naiditch, G. Bergara & P. Cloud - Douce Ambiance - Gypsy Jazz Cassics.wav

Peak level 98.4 %
Extraction speed 4.6 X
Range quality 100.0 %
Test CRC A1339848
Copy CRC A1339848
Copy OK

No errors occurred

End of status report

–– CUETools DB Plugin V2.1.6

[CTDB TOCID: XNF2NiJPKrAfMUBpXgs0NFPy5Ms-] found
Submit result: already submitted
Track | CTDB Status
1 | (2/2) Accurately ripped
2 | (2/2) Accurately ripped
3 | (2/2) Accurately ripped
4 | (2/2) Accurately ripped
5 | (2/2) Accurately ripped
6 | (2/2) Accurately ripped
7 | (2/2) Accurately ripped
8 | (2/2) Accurately ripped
9 | (2/2) Accurately ripped
10 | (2/2) Accurately ripped
11 | (2/2) Accurately ripped
12 | (2/2) Accurately ripped
13 | (2/2) Accurately ripped
14 | (2/2) Accurately ripped
15 | (2/2) Accurately ripped

==== Log checksum 8CC16124926DE4A00CB5AEB9C73BD8C51B1E1D25B69C1782D8370DE774294463 ====

All thanks go to the koi759

More Music in My Blog
Follow My RSS Channel