Subcategories

David Bowie - The Singles Collection (2CD, 1993) RE-UPPED

Posted By: Shar'EmAll
David Bowie - The Singles Collection (2CD, 1993) RE-UPPED

David Bowie - The Singles Collection (2CD, 1993)
2x EAC-FLAC(tracks)+CUE+LOG > 1,04 GB | Complete Scans | MP3 CBR 320 Kbps > 407 MB
Double CD compilation | TT - 151:48 mins | Label: EMI Records Ltd. | Catalogue # 828099-2

The Singles Collection is a compilation album by David Bowie, released in 1993 in the UK. Despite the album name, some of the tracks (such as "Ziggy Stardust" and "Oh! You Pretty Things") were never released as singles by Bowie. The compilation collects all of the Thin White Duke's biggest hits from 'Space Oddity' to 'Day-In Day-Out' and features overlooked gems like 'Drive-In Saturday', 'TVC 15', 'Beauty & The Beast' and others. 37 tracks in all.

TRACKLIST:

Disc One:

01. Space Oddity
02. Changes
03. Starman
04. Ziggy Stardust
05. Suffragette City
06. John, I'm Only Dancing
07. The Jean Genie
08. Drive In Saturday
09. Life On Mars
10. Sorrow
11. Rebel Rebel
12. Rock & Roll Suicide
13. Diamond Dogs
14. Knock On Wood
15. Young Americans
16. Fame
17. Golden Years
18. TVC 15
19. Sound & Vision

Disc Two:
01. Heroes
02. Beauty & The Beast
03. Boys Keep Swinging
04. D.J.
05. Alabama Song
06. Ashes To Ashes
07. Fashion
08. Scary Monsters (and Super Creeps)
09. Under Pressure (with Queen)
10. Wild Is The Wind
11. Let's Dance
12. China Girl
13. Modern Love
14. Blue Jean
15. This Is Not America (with Pat Metheny)
16. Dancing In The Street (with Mick Jagger)
17. Absolute Beginners
18. Day-In Day-Out

Thanks to the Original ripper!

Exact Audio Copy V0.99 prebeta 5 from 4. May 2009

Отчёт EAC об извлечении, выполненном 21. октября 2011, 0:01

David Bowie / The Singles Collection CD1

Дисковод: Optiarc DVD RW AD-5240S Adapter: 3 ID: 1

Режим чтения : Достоверность
Использование точного потока : Да
Отключение кэша аудио : Да
Использование указателей C2 : Нет

Коррекция смещения при чтении : 48
Способность читать области Lead-in и Lead-out : Нет
Заполнение пропущенных сэмплов тишиной : Да
Удаление блоков с тишиной в начале и конце : Нет
При вычислениях CRC использовались нулевые сэмплы : Да
Интерфейс : Встроенный Win32-интерфейс для Win NT/2000
Обработка зазоров : Добавлено к предыдущему треку

Выходной формат : Пользовательский кодировщик
Выбранный битрейт : 768 kBit/s
Качество : Высокий
Добавление ID3-тэга : Нет
Утилита сжатия : L:\программы\Exact Audio Copy\FLAC\FLAC.EXE
Дополнительные параметры : -6 -V -T "ARTIST=%a" -T "TITLE=%t" -T "ALBUM=%g" -T "DATE=%y" -T "TRACKNUMBER=%n" -T "GENRE=%m" -T "COMMENT=%e" %s -o %d


TOC извлечённого CD

Трек | Старт | Длительность | Начальный сектор | Конечный сектор
––––––––––––––––––––––––––––––––––-
1 | 0:00.33 | 5:15.57 | 33 | 23714
2 | 5:16.15 | 3:35.13 | 23715 | 39852
3 | 8:51.28 | 4:18.02 | 39853 | 59204
4 | 13:09.30 | 3:14.20 | 59205 | 73774
5 | 16:23.50 | 3:26.30 | 73775 | 89254
6 | 19:50.05 | 2:47.20 | 89255 | 101799
7 | 22:37.25 | 4:07.43 | 101800 | 120367
8 | 26:44.68 | 4:30.02 | 120368 | 140619
9 | 31:14.70 | 3:51.60 | 140620 | 158004
10 | 35:06.55 | 2:54.23 | 158005 | 171077
11 | 38:01.03 | 4:30.27 | 171078 | 191354
12 | 42:31.30 | 2:58.18 | 191355 | 204722
13 | 45:29.48 | 6:04.55 | 204723 | 232077
14 | 51:34.28 | 3:03.50 | 232078 | 245852
15 | 54:38.03 | 5:11.35 | 245853 | 269212
16 | 59:49.38 | 4:14.52 | 269213 | 288314
17 | 64:04.15 | 4:00.15 | 288315 | 306329
18 | 68:04.30 | 5:31.48 | 306330 | 331202
19 | 73:36.03 | 3:03.02 | 331203 | 344929


Трек 1

Имя файла L:\Новая папка\01. David Bowie - Space Oddity.wav

Длина предзазора 0:00:02.33

Пиковый уровень 95.9 %
Качество трека 99.9 %
CRC теста 2819B64B
CRC копии 2819B64B
Точное извлечение (достоверность 200) [1389A967]
Копирование… OK

Трек 2

Имя файла L:\Новая папка\02. David Bowie - Changes.wav

Длина предзазора 0:00:01.10

Пиковый уровень 95.9 %
Качество трека 99.9 %
CRC теста FBBDC140
CRC копии FBBDC140
Точное извлечение (достоверность 200) [80E613DA]
Копирование… OK

Трек 3

Имя файла L:\Новая папка\03. David Bowie - Starman.wav

Длина предзазора 0:00:00.50

Пиковый уровень 95.9 %
Качество трека 99.9 %
CRC теста AB9ACC3A
CRC копии AB9ACC3A
Точное извлечение (достоверность 200) [848BF2F3]
Копирование… OK

Трек 4

Имя файла L:\Новая папка\04. David Bowie - Ziggy Stardust.wav

Длина предзазора 0:00:01.20

Пиковый уровень 95.8 %
Качество трека 99.9 %
CRC теста F084BCEE
CRC копии F084BCEE
Точное извлечение (достоверность 200) [E89A10C4]
Копирование… OK

Трек 5

Имя файла L:\Новая папка\05. David Bowie - Suffragette City.wav

Длина предзазора 0:00:00.25

Пиковый уровень 95.5 %
Качество трека 100.0 %
CRC теста 3682C086
CRC копии 3682C086
Точное извлечение (достоверность 200) [8326C088]
Копирование… OK

Трек 6

Имя файла L:\Новая папка\06. David Bowie - John, I'm Only Dancing.wav

Длина предзазора 0:00:00.42

Пиковый уровень 95.9 %
Качество трека 100.0 %
CRC теста E63D7D29
CRC копии E63D7D29
Точное извлечение (достоверность 200) [C0328CE8]
Копирование… OK

Трек 7

Имя файла L:\Новая папка\07. David Bowie - The Jean Genie.wav

Длина предзазора 0:00:00.67

Пиковый уровень 74.4 %
Качество трека 100.0 %
CRC теста 2947A6C1
CRC копии 2947A6C1
Точное извлечение (достоверность 200) [934265AF]
Копирование… OK

Трек 8

Имя файла L:\Новая папка\08. David Bowie - Drive In Saturday.wav

Длина предзазора 0:00:00.60

Пиковый уровень 98.9 %
Качество трека 100.0 %
CRC теста 704C5D36
CRC копии 704C5D36
Точное извлечение (достоверность 200) [D22BDF7F]
Копирование… OK

Трек 9

Имя файла L:\Новая папка\09. David Bowie - Life On Mars.wav

Длина предзазора 0:00:01.62

Пиковый уровень 95.9 %
Качество трека 100.0 %
CRC теста FC4F261A
CRC копии FC4F261A
Точное извлечение (достоверность 200) [6C191A62]
Копирование… OK

Трек 10

Имя файла L:\Новая папка\10. David Bowie - Sorrow.wav

Длина предзазора 0:00:02.22

Пиковый уровень 95.4 %
Качество трека 100.0 %
CRC теста EEB3E74B
CRC копии EEB3E74B
Точное извлечение (достоверность 200) [E802BF15]
Копирование… OK

Трек 11

Имя файла L:\Новая папка\11. David Bowie - Rebel Rebel.wav

Длина предзазора 0:00:00.45

Пиковый уровень 95.9 %
Качество трека 100.0 %
CRC теста 06EC40BB
CRC копии 06EC40BB
Точное извлечение (достоверность 200) [213FAF34]
Копирование… OK

Трек 12

Имя файла L:\Новая папка\12. David Bowie - Rock & Roll Suicide.wav

Длина предзазора 0:00:00.72

Пиковый уровень 94.8 %
Качество трека 100.0 %
CRC теста 0F3CEBCB
CRC копии 0F3CEBCB
Точное извлечение (достоверность 200) [14822175]
Копирование… OK

Трек 13

Имя файла L:\Новая папка\13. David Bowie - Diamond Dogs.wav

Длина предзазора 0:00:00.08

Пиковый уровень 95.9 %
Качество трека 100.0 %
CRC теста 8027CFC7
CRC копии 8027CFC7
Точное извлечение (достоверность 200) [99D58A55]
Копирование… OK

Трек 14

Имя файла L:\Новая папка\14. David Bowie - Knock On Wood.wav

Длина предзазора 0:00:00.33

Пиковый уровень 93.7 %
Качество трека 100.0 %
CRC теста 87D1366F
CRC копии 87D1366F
Точное извлечение (достоверность 200) [F3D7D0E3]
Копирование… OK

Трек 15

Имя файла L:\Новая папка\15. David Bowie - Young Americans.wav

Длина предзазора 0:00:00.53

Пиковый уровень 95.9 %
Качество трека 99.9 %
CRC теста 4046F6FD
CRC копии 4046F6FD
Точное извлечение (достоверность 200) [1933B2B8]
Копирование… OK

Трек 16

Имя файла L:\Новая папка\16. David Bowie - Fame.wav

Длина предзазора 0:00:00.70

Пиковый уровень 93.5 %
Качество трека 99.9 %
CRC теста 64D116DE
CRC копии 64D116DE
Точное извлечение (достоверность 200) [6140AC7A]
Копирование… OK

Трек 17

Имя файла L:\Новая папка\17. David Bowie - Golden Years.wav

Длина предзазора 0:00:00.42

Пиковый уровень 85.5 %
Качество трека 100.0 %
CRC теста 63722FA2
CRC копии 63722FA2
Точное извлечение (достоверность 200) [234F9B11]
Копирование… OK

Трек 18

Имя файла L:\Новая папка\18. David Bowie - TVC 15.wav

Длина предзазора 0:00:01.35

Пиковый уровень 95.6 %
Качество трека 100.0 %
CRC теста 62ECF26F
CRC копии 62ECF26F
Точное извлечение (достоверность 200) [8402FC30]
Копирование… OK

Трек 19

Имя файла L:\Новая папка\19. David Bowie - Sound & Vision.wav

Длина предзазора 0:00:01.53

Пиковый уровень 98.9 %
Качество трека 100.0 %
CRC теста B35BD5F9
CRC копии B35BD5F9
Точное извлечение (достоверность 200) [7DC19404]
Копирование… OK


Все треки извлечены точно

Ошибок не произошло

Конец отчёта

––––––––––––––––––––––––––-

Exact Audio Copy V0.99 prebeta 5 from 4. May 2009

Отчёт EAC об извлечении, выполненном 21. октября 2011, 0:48

David Bowie / The Singles Collection CD2

Дисковод: Optiarc DVD RW AD-5240S Adapter: 3 ID: 1

Режим чтения : Достоверность
Использование точного потока : Да
Отключение кэша аудио : Да
Использование указателей C2 : Нет

Коррекция смещения при чтении : 48
Способность читать области Lead-in и Lead-out : Нет
Заполнение пропущенных сэмплов тишиной : Да
Удаление блоков с тишиной в начале и конце : Нет
При вычислениях CRC использовались нулевые сэмплы : Да
Интерфейс : Встроенный Win32-интерфейс для Win NT/2000
Обработка зазоров : Добавлено к предыдущему треку

Выходной формат : Пользовательский кодировщик
Выбранный битрейт : 768 kBit/s
Качество : Высокий
Добавление ID3-тэга : Нет
Утилита сжатия : L:\программы\Exact Audio Copy\FLAC\FLAC.EXE
Дополнительные параметры : -6 -V -T "ARTIST=%a" -T "TITLE=%t" -T "ALBUM=%g" -T "DATE=%y" -T "TRACKNUMBER=%n" -T "GENRE=%m" -T "COMMENT=%e" %s -o %d


TOC извлечённого CD

Трек | Старт | Длительность | Начальный сектор | Конечный сектор
––––––––––––––––––––––––––––––––––-
1 | 0:00.33 | 3:37.37 | 33 | 16344
2 | 3:37.70 | 3:34.08 | 16345 | 32402
3 | 7:12.03 | 3:17.67 | 32403 | 47244
4 | 10:29.70 | 4:00.33 | 47245 | 65277
5 | 14:30.28 | 3:51.47 | 65278 | 82649
6 | 18:22.00 | 4:24.13 | 82650 | 102462
7 | 22:46.13 | 4:47.47 | 102463 | 124034
8 | 27:33.60 | 5:11.13 | 124035 | 147372
9 | 32:44.73 | 3:57.12 | 147373 | 165159
10 | 36:42.10 | 6:01.38 | 165160 | 192272
11 | 42:43.48 | 4:10.27 | 192273 | 211049
12 | 46:54.00 | 4:16.58 | 211050 | 230307
13 | 51:10.58 | 3:57.50 | 230308 | 248132
14 | 55:08.33 | 3:11.12 | 248133 | 262469
15 | 58:19.45 | 3:50.25 | 262470 | 279744
16 | 62:09.70 | 3:10.53 | 279745 | 294047
17 | 65:20.48 | 5:37.20 | 294048 | 319342
18 | 70:57.68 | 4:11.72 | 319343 | 338239


Трек 1

Имя файла L:\Новая папка\01. David Bowie - Heroes.wav

Длина предзазора 0:00:02.33

Пиковый уровень 96.4 %
Качество трека 99.9 %
CRC теста 0C6C505A
CRC копии 0C6C505A
Точное извлечение (достоверность 156) [80F80F0A]
Копирование… OK

Трек 2

Имя файла L:\Новая папка\02. David Bowie - Beauty & The Beast.wav

Длина предзазора 0:00:00.55

Пиковый уровень 99.4 %
Качество трека 100.0 %
CRC теста D9041CA9
CRC копии D9041CA9
Точное извлечение (достоверность 154) [4915BE01]
Копирование… OK

Трек 3

Имя файла L:\Новая папка\03. David Bowie - Boys Keep Swinging.wav

Пиковый уровень 97.2 %
Качество трека 99.9 %
CRC теста AA7B17E8
CRC копии AA7B17E8
Точное извлечение (достоверность 155) [CF595FC1]
Копирование… OK

Трек 4

Имя файла L:\Новая папка\04. David Bowie - D.J..wav

Длина предзазора 0:00:00.50

Пиковый уровень 99.4 %
Качество трека 100.0 %
CRC теста FC013B6A
CRC копии FC013B6A
Точное извлечение (достоверность 154) [02D6ABC8]
Копирование… OK

Трек 5

Имя файла L:\Новая папка\05. David Bowie - Alabama Song.wav

Длина предзазора 0:00:00.35

Пиковый уровень 96.4 %
Качество трека 100.0 %
CRC теста 258AABCB
CRC копии 258AABCB
Точное извлечение (достоверность 155) [032C0609]
Копирование… OK

Трек 6

Имя файла L:\Новая папка\06. David Bowie - Ashes To Ashes.wav

Длина предзазора 0:00:01.22

Пиковый уровень 96.4 %
Качество трека 100.0 %
CRC теста 3F443AB6
CRC копии 3F443AB6
Точное извлечение (достоверность 157) [CD4EC86F]
Копирование… OK

Трек 7

Имя файла L:\Новая папка\07. David Bowie - Fashion.wav

Длина предзазора 0:00:01.23

Пиковый уровень 96.4 %
Качество трека 100.0 %
CRC теста CDAA3662
CRC копии CDAA3662
Точное извлечение (достоверность 156) [E7AE14D5]
Копирование… OK

Трек 8

Имя файла L:\Новая папка\08. David Bowie - Scary Monsters (and Super Creeps).wav

Длина предзазора 0:00:01.05

Пиковый уровень 96.4 %
Качество трека 100.0 %
CRC теста 1E0FE386
CRC копии 1E0FE386
Точное извлечение (достоверность 149) [36650FF8]
Копирование… OK

Трек 9

Имя файла L:\Новая папка\09. David Bowie - Under Pressure (with Queen).wav

Пиковый уровень 96.1 %
Качество трека 100.0 %
CRC теста BFDC87EE
CRC копии BFDC87EE
Точное извлечение (достоверность 153) [3FD48717]
Копирование… OK

Трек 10

Имя файла L:\Новая папка\10. David Bowie - Wild Is The Wind.wav

Длина предзазора 0:00:00.62

Пиковый уровень 96.4 %
Качество трека 100.0 %
CRC теста 174D5F7F
CRC копии 174D5F7F
Точное извлечение (достоверность 152) [18D990EE]
Копирование… OK

Трек 11

Имя файла L:\Новая папка\11. David Bowie - Let's Dance.wav

Длина предзазора 0:00:01.43

Пиковый уровень 96.4 %
Качество трека 99.9 %
CRC теста 0492C08C
CRC копии 0492C08C
Точное извлечение (достоверность 153) [7815B2A0]
Копирование… OK

Трек 12

Имя файла L:\Новая папка\12. David Bowie - China Girl.wav

Длина предзазора 0:00:01.62

Пиковый уровень 96.4 %
Качество трека 100.0 %
CRC теста 69CC8AE6
CRC копии 69CC8AE6
Точное извлечение (достоверность 155) [AA6826CA]
Копирование… OK

Трек 13

Имя файла L:\Новая папка\13. David Bowie - Modern Love.wav

Длина предзазора 0:00:01.35

Пиковый уровень 96.4 %
Качество трека 100.0 %
CRC теста 6C928D0D
CRC копии 6C928D0D
Точное извлечение (достоверность 155) [225AEB64]
Копирование… OK

Трек 14

Имя файла L:\Новая папка\14. David Bowie - Blue Jean.wav

Длина предзазора 0:00:00.60

Пиковый уровень 96.2 %
Качество трека 100.0 %
CRC теста E67C82F1
CRC копии E67C82F1
Точное извлечение (достоверность 153) [6E19170C]
Копирование… OK

Трек 15

Имя файла L:\Новая папка\15. David Bowie - This Is Not America (with Pat Metheny).wav

Длина предзазора 0:00:01.12

Пиковый уровень 94.4 %
Качество трека 100.0 %
CRC теста D90CAF6D
CRC копии D90CAF6D
Точное извлечение (достоверность 157) [BC9B36EB]
Копирование… OK

Трек 16

Имя файла L:\Новая папка\16. David Bowie - Dancing In The Street (with Mick Jagger).wav

Длина предзазора 0:00:01.60

Пиковый уровень 95.9 %
Качество трека 100.0 %
CRC теста 4903D915
CRC копии 4903D915
Точное извлечение (достоверность 155) [93873D84]
Копирование… OK

Трек 17

Имя файла L:\Новая папка\17. David Bowie - Absolute Beginners.wav

Длина предзазора 0:00:00.33

Пиковый уровень 84.3 %
Качество трека 100.0 %
CRC теста 0021C890
CRC копии 0021C890
Точное извлечение (достоверность 154) [980CA388]
Копирование… OK

Трек 18

Имя файла L:\Новая папка\18. David Bowie - Day-In Day-Out.wav

Длина предзазора 0:00:00.30

Пиковый уровень 96.0 %
Качество трека 100.0 %
CRC теста 3448172B
CRC копии 3448172B
Точное извлечение (достоверность 149) [99056660]
Копирование… OK


Все треки извлечены точно

Ошибок не произошло

Конец отчёта

NITRO
FLAC 1
FLAC 2
MP3 320


UPLOVEABLE
FLAC 1
FLAC 2
MP3 320

All Scans & Recovery info included.