Subcategories

David Bowie - Live Santa Monica '72 {2008 EMI Remaster}

Posted By: ruskaval
David Bowie - Live Santa Monica '72 {2008 EMI Remaster}

David Bowie - Live Santa Monica '72 {2008 EMI Remaster}
EAC rip (secure mode) | FLAC+CUE+LOG -> 520 Mb | MP3 @320 -> 167 Mb
Full Artwork @ 300 dpi (jpg) -> 45 Mb
© 2008 EMI / Jones/Tintoretto | 07243-583221-2-5
Rock / Pop / Experimental Rock / Glam Rock


David Bowie - Live Santa Monica '72 {2008 EMI Remaster}

Only available in bootleg versions before this 2008 EMI release, LIVE SANTA MONICA '72 presents David Bowie in full glam-rock grandeur completely inhabiting his outlandish Ziggy Stardust persona as he leads his Spiders from Mars through a fierce set that draws heavily from HUNKY DORY and, not surprisingly, THE RISE & FALL OF ZIGGY STARDUST. In addition to cherry-picking many of the finest tunes from Bowie's early era (most notably a thunderous extended version of "The Width of a Circle"), the set also finds the erstwhile Davy Jones covering Jacques Brel (a wistful take on "My Death" that nods to key Bowie influence Scott Walker) and the Velvet Underground (a faithful version of "Waiting for the Man"). Easily one of the best Bowie concert albums available, LIVE SANTA MONICA '72 is ideal for Ziggy acolytes and glam disciples.
tracklist:
01. Introduction
02. Hang On To Yourself
03. Ziggy Stardust
04. Changes
05. The Supermen
06. Life On Mars?
07. Five Years
08. Space Oddity
09. Andy Warhol
10. My Death
11. The Width Of A Circle
12. Queen Bitch
13. Moonage Daydream
14. John, I'm Only Dancing
15. Waiting For The Man
16. The Jean Genie
17. Suffragette City
18. Rock 'N Roll Suicide

David Bowie - Live Santa Monica '72 {2008 EMI Remaster}

Exact Audio Copy V0.99 prebeta 5 from 4. May 2009

EAC extraction logfile from 17. November 2009, 17:45

David Bowie / Live Santa Monica '72

Used drive : TSSTcorpCD/DVDW TS-H552L Adapter: 3 ID: 0

Read mode : Secure
Utilize accurate stream : Yes
Defeat audio cache : Yes
Make use of C2 pointers : No

Read offset correction : 6
Overread into Lead-In and Lead-Out : No
Fill up missing offset samples with silence : Yes
Delete leading and trailing silent blocks : No
Null samples used in CRC calculations : Yes
Used interface : Native Win32 interface for Win NT & 2000
Gap handling : Appended to previous track

Used output format : User Defined Encoder
Selected bitrate : 1024 kBit/s
Quality : High
Add ID3 tag : No
Command line compressor : C:\Program Files\FLAC\flac.exe
Additional command line options : -6 -V -T "ARTIST=%a" -T "TITLE=%t" -T "ALBUM=%g" -T "DATE=%y" -T "TRACKNUMBER=%n" -T "GENRE=%m" -T "COMMENT=EAC FLAC -6" %s


TOC of the extracted CD

Track | Start | Length | Start sector | End sector
––––––––––––––––––––––––––––-
1 | 0:00.00 | 0:13.16 | 0 | 990
2 | 0:13.16 | 2:46.37 | 991 | 13477
3 | 2:59.53 | 3:22.62 | 13478 | 28689
4 | 6:22.40 | 3:27.07 | 28690 | 44221
5 | 9:49.47 | 2:55.37 | 44222 | 57383
6 | 12:45.09 | 3:27.66 | 57384 | 72974
7 | 16:13.00 | 4:32.11 | 72975 | 93385
8 | 20:45.11 | 5:04.38 | 93386 | 116223
9 | 25:49.49 | 3:49.44 | 116224 | 133442
10 | 29:39.18 | 5:50.45 | 133443 | 159737
11 | 35:29.63 | 10:43.48 | 159738 | 208010
12 | 46:13.36 | 3:00.16 | 208011 | 221526
13 | 49:13.52 | 4:53.06 | 221527 | 243507
14 | 54:06.58 | 3:16.13 | 243508 | 258220
15 | 57:22.71 | 5:44.54 | 258221 | 284074
16 | 63:07.50 | 4:00.18 | 284075 | 302092
17 | 67:07.68 | 4:11.42 | 302093 | 320959
18 | 71:19.35 | 3:01.34 | 320960 | 334568


Track 1

Filename C:\David Bowie - Live Santa Monica '72 {2008 EMI Remaster}\01 - Introduction.wav

Pre-gap length 0:00:02.00

Peak level 97.7 %
Track quality 100.0 %
Test CRC 33F7646B
Copy CRC 33F7646B
Accurately ripped (confidence 38) [2DF44858]
Copy OK

Track 2

Filename C:\David Bowie - Live Santa Monica '72 {2008 EMI Remaster}\02 - Hang On To Yourself.wav

Peak level 98.6 %
Track quality 100.0 %
Test CRC 227AEC80
Copy CRC 227AEC80
Accurately ripped (confidence 39) [0AAAA493]
Copy OK

Track 3

Filename C:\David Bowie - Live Santa Monica '72 {2008 EMI Remaster}\03 - Ziggy Stardust.wav

Peak level 100.0 %
Track quality 100.0 %
Test CRC 59A235BD
Copy CRC 59A235BD
Accurately ripped (confidence 37) [9732BA6E]
Copy OK

Track 4

Filename C:\David Bowie - Live Santa Monica '72 {2008 EMI Remaster}\04 - Changes.wav

Peak level 98.3 %
Track quality 100.0 %
Test CRC A8486D05
Copy CRC A8486D05
Accurately ripped (confidence 39) [0C8DA779]
Copy OK

Track 5

Filename C:\David Bowie - Live Santa Monica '72 {2008 EMI Remaster}\05 - The Supermen.wav

Peak level 98.1 %
Track quality 100.0 %
Test CRC 5C96F354
Copy CRC 5C96F354
Accurately ripped (confidence 38) [6A5570D9]
Copy OK

Track 6

Filename C:\David Bowie - Live Santa Monica '72 {2008 EMI Remaster}\06 - Life On Mars .wav

Peak level 97.8 %
Track quality 99.9 %
Test CRC EB675808
Copy CRC EB675808
Accurately ripped (confidence 38) [C8868415]
Copy OK

Track 7

Filename C:\David Bowie - Live Santa Monica '72 {2008 EMI Remaster}\07 - Five Years.wav

Peak level 98.0 %
Track quality 100.0 %
Test CRC E5194D50
Copy CRC E5194D50
Accurately ripped (confidence 37) [82E57E64]
Copy OK

Track 8

Filename C:\David Bowie - Live Santa Monica '72 {2008 EMI Remaster}\08 - Space Oddity.wav

Peak level 97.8 %
Track quality 99.9 %
Test CRC 8DE414F3
Copy CRC 8DE414F3
Accurately ripped (confidence 37) [5C64034A]
Copy OK

Track 9

Filename C:\David Bowie - Live Santa Monica '72 {2008 EMI Remaster}\09 - Andy Warhol.wav

Peak level 98.0 %
Track quality 100.0 %
Test CRC 62A1DACB
Copy CRC 62A1DACB
Accurately ripped (confidence 37) [9EEF6C0A]
Copy OK

Track 10

Filename C:\David Bowie - Live Santa Monica '72 {2008 EMI Remaster}\10 - My Death.wav

Peak level 98.3 %
Track quality 100.0 %
Test CRC 5748A3B2
Copy CRC 5748A3B2
Accurately ripped (confidence 36) [A531C3CA]
Copy OK

Track 11

Filename C:\David Bowie - Live Santa Monica '72 {2008 EMI Remaster}\11 - The Width Of A Circle.wav

Peak level 98.9 %
Track quality 100.0 %
Test CRC D9FA5B0B
Copy CRC D9FA5B0B
Accurately ripped (confidence 37) [49941B81]
Copy OK

Track 12

Filename C:\David Bowie - Live Santa Monica '72 {2008 EMI Remaster}\12 - Queen Bitch.wav

Peak level 98.3 %
Track quality 100.0 %
Test CRC 91EAD026
Copy CRC 91EAD026
Accurately ripped (confidence 37) [4FDE7E4C]
Copy OK

Track 13

Filename C:\David Bowie - Live Santa Monica '72 {2008 EMI Remaster}\13 - Moonage Daydream.wav

Peak level 99.2 %
Track quality 100.0 %
Test CRC EBF724E6
Copy CRC EBF724E6
Accurately ripped (confidence 36) [EAD1B776]
Copy OK

Track 14

Filename C:\David Bowie - Live Santa Monica '72 {2008 EMI Remaster}\14 - John, I'm Only Dancing.wav

Peak level 98.4 %
Track quality 100.0 %
Test CRC 1424CEE9
Copy CRC 1424CEE9
Accurately ripped (confidence 37) [AA7C3936]
Copy OK

Track 15

Filename C:\David Bowie - Live Santa Monica '72 {2008 EMI Remaster}\15 - Waiting For The Man.wav

Peak level 98.9 %
Track quality 100.0 %
Test CRC 6922BCDE
Copy CRC 6922BCDE
Accurately ripped (confidence 37) [28B35791]
Copy OK

Track 16

Filename C:\David Bowie - Live Santa Monica '72 {2008 EMI Remaster}\16 - The Jean Genie.wav

Peak level 100.0 %
Track quality 100.0 %
Test CRC 635A78A4
Copy CRC 635A78A4
Accurately ripped (confidence 37) [4FFFC1E3]
Copy OK

Track 17

Filename C:\David Bowie - Live Santa Monica '72 {2008 EMI Remaster}\17 - Suffragette City.wav

Peak level 98.0 %
Track quality 100.0 %
Test CRC 1EDFAA01
Copy CRC 1EDFAA01
Accurately ripped (confidence 35) [24EB1A6A]
Copy OK

Track 18

Filename C:\David Bowie - Live Santa Monica '72 {2008 EMI Remaster}\18 - Rock 'N' Roll Suicide.wav

Peak level 98.8 %
Track quality 100.0 %
Test CRC ED01E5D6
Copy CRC ED01E5D6
Accurately ripped (confidence 36) [B0F3E691]
Copy OK


All tracks accurately ripped

No errors occurred

End of status report