David Byrne - The Catherine Wheel (The Complete Score from the Broadway Production) (1981/1990)

Posted By: delpotro
David Byrne - The Catherine Wheel (The Complete Score from the Broadway Production) (1981/1990)

David Byrne - The Catherine Wheel (The Complete Score from the Broadway Production) (1981/1990)
EAC Rip | FLAC (tracks+log+.cue) | 01:09:06 | 390 Mb
Art Rock, New Wave, Pop, Electronic, Soundtrack | Label: Sire Records

The Catherine Wheel is David Byrne's musical score commissioned by Twyla Tharp for her dance project. The Catherine Wheel premiered September 22, 1981, at the Winter Garden Theatre in New York City.


Since the breakup of Talking Heads, David Byrne's solo work has been notoriously inconsistent. But before that band's dissolution, he made a couple of very fine albums on his own: My Life in the Bush of Ghosts (with Brian Eno) and The Catherine Wheel, a musical score commissioned by Twyla Tharp to accompany her dance project of the same name. Byrne's score is always interesting and frequently brilliant; it draws on the instrumental talents of such session greats as drummer Yogi Horton, percussionist John Chernoff, guitarist Adrian Belew (who had been recording and touring as a sideman with Talking Heads), and, inevitably, Eno. Horton's drumming establishes a muscular funk foundation for much of the material, which also showcases Byrne's underrated guitar playing. Only the lyrics disappoint; they consist almost entirely of clichéd and predictable depictions of domestic suburban angst. Highlights of the program include "The Red House," with its eerie use of deconstructed vocal samples, and the lovely faux-juju "Ade." Highly recommended.
Tracklist:
1. Light Bath (01:09)
2. His Wife Refused (04:31)
3. Adé (03:22)
4. Walking (00:52)
5. Two Soldiers (03:31)
6. Under The Mountain (00:53)
7. Dinosaur (02:36)
8. The Red House (03:17)
9. Wheezing (03:12)
10. Eggs In A Briar Patch (03:31)
11. Poison (02:31)
12. Cloud Chamber (02:50)
13. Black Flag (02:29)
14. My Big Hands (Fall Through The Cracks) (02:46)
15. Combat (02:45)
16. Leg Bells (02:40)
17. The Blue Flame (03:25)
18. Big Business (05:06)
19. Dense Beasts (03:11)
20. Five Golden Sections (02:53)
21. What A Day That Was (05:30)
22. Big Blue Plymouth (Eyes Wide Open) (04:43)
23. Light Bath (01:10)

Exact Audio Copy V1.3 from 2. September 2016

EAC extraction logfile from 3. January 2017, 11:51

David Byrne / The Catherine Wheel

Used drive : TEAC DW-224E-C Adapter: 1 ID: 1

Read mode : Secure
Utilize accurate stream : Yes
Defeat audio cache : Yes
Make use of C2 pointers : No

Read offset correction : 102
Overread into Lead-In and Lead-Out : No
Fill up missing offset samples with silence : Yes
Delete leading and trailing silent blocks : No
Null samples used in CRC calculations : Yes
Used interface : Native Win32 interface for Win NT & 2000
Gap handling : Appended to previous track

Used output format : User Defined Encoder
Selected bitrate : 1024 kBit/s
Quality : High
Add ID3 tag : No
Command line compressor : C:\Program Files (x86)\Exact Audio Copy\FLAC\FLAC.EXE
Additional command line options : -8 -e -p -V -T "ARTIST=%artist%" -T "TITLE=%title%" -T "ALBUM=%albumtitle%" -T "DATE=%year%" -T "TRACKNUMBER=%tracknr%" -T "GENRE=%genre%" -T "PERFORMER=%albuminterpret%" -T "COMPOSER=%composer%" %haslyrics%–tag-from-file=LYRICS="%lyricsfile%"%haslyrics% -T "ALBUMARTIST=%albumartist%" -T "DISCNUMBER=%cdnumber%" -T "TOTALDISCS=%totalcds%" -T "TOTALTRACKS=%numtracks%" -T "COMMENT=%comment%" %source% -o %dest%


TOC of the extracted CD

Track | Start | Length | Start sector | End sector
––––––––––––––––––––––––––––-
1 | 0:00.00 | 1:11.58 | 0 | 5382
2 | 1:11.58 | 4:32.00 | 5383 | 25782
3 | 5:43.58 | 3:22.45 | 25783 | 40977
4 | 9:06.28 | 0:53.65 | 40978 | 45017
5 | 10:00.18 | 3:31.52 | 45018 | 60894
6 | 13:31.70 | 0:52.55 | 60895 | 64849
7 | 14:24.50 | 2:34.30 | 64850 | 76429
8 | 16:59.05 | 3:17.28 | 76430 | 91232
9 | 20:16.33 | 3:11.72 | 91233 | 105629
10 | 23:28.30 | 3:31.50 | 105630 | 121504
11 | 27:00.05 | 2:31.48 | 121505 | 132877
12 | 29:31.53 | 2:50.15 | 132878 | 145642
13 | 32:21.68 | 2:30.15 | 145643 | 156907
14 | 34:52.08 | 2:45.37 | 156908 | 169319
15 | 37:37.45 | 2:45.20 | 169320 | 181714
16 | 40:22.65 | 2:41.23 | 181715 | 193812
17 | 43:04.13 | 3:24.50 | 193813 | 209162
18 | 46:28.63 | 5:06.02 | 209163 | 232114
19 | 51:34.65 | 3:11.68 | 232115 | 246507
20 | 54:46.58 | 2:53.12 | 246508 | 259494
21 | 57:39.70 | 5:32.43 | 259495 | 284437
22 | 63:12.38 | 4:44.20 | 284438 | 305757
23 | 67:56.58 | 1:09.57 | 305758 | 310989


Track 1

Filename C:\audio\apl-todo\David Byrne - The Catherine Wheel\01 - Light Bath.wav

Pre-gap length 0:00:02.00

Peak level 72.7 %
Extraction speed 6.1 X
Track quality 100.0 %
Test CRC 62BCEAD1
Copy CRC 62BCEAD1
Accurately ripped (confidence 20) [BEC9CBF0] (AR v2)
Copy OK

Track 2

Filename C:\audio\apl-todo\David Byrne - The Catherine Wheel\02 - His Wife Refused.wav

Peak level 100.0 %
Extraction speed 8.1 X
Track quality 100.0 %
Test CRC EFB1D8D1
Copy CRC EFB1D8D1
Accurately ripped (confidence 19) [E7E3301A] (AR v2)
Copy OK

Track 3

Filename C:\audio\apl-todo\David Byrne - The Catherine Wheel\03 - Ade.wav

Peak level 100.0 %
Extraction speed 8.6 X
Track quality 100.0 %
Test CRC BDD0573A
Copy CRC BDD0573A
Accurately ripped (confidence 20) [3C7D3573] (AR v2)
Copy OK

Track 4

Filename C:\audio\apl-todo\David Byrne - The Catherine Wheel\04 - Walking.wav

Peak level 72.4 %
Extraction speed 6.7 X
Track quality 100.0 %
Test CRC 45B09B4B
Copy CRC 45B09B4B
Accurately ripped (confidence 20) [066B651F] (AR v2)
Copy OK

Track 5

Filename C:\audio\apl-todo\David Byrne - The Catherine Wheel\05 - Two Soldiers.wav

Peak level 82.4 %
Extraction speed 9.3 X
Track quality 100.0 %
Test CRC 1CB67E8A
Copy CRC 1CB67E8A
Accurately ripped (confidence 20) [07337DFD] (AR v2)
Copy OK

Track 6

Filename C:\audio\apl-todo\David Byrne - The Catherine Wheel\06 - Under The Mountain.wav

Peak level 88.2 %
Extraction speed 6.5 X
Track quality 100.0 %
Test CRC FF45297C
Copy CRC FF45297C
Accurately ripped (confidence 20) [3DD25D5D] (AR v2)
Copy OK

Track 7

Filename C:\audio\apl-todo\David Byrne - The Catherine Wheel\07 - Dinosaur.wav

Peak level 100.0 %
Extraction speed 9.3 X
Track quality 100.0 %
Test CRC 341CC413
Copy CRC 341CC413
Accurately ripped (confidence 20) [1AC07955] (AR v2)
Copy OK

Track 8

Filename C:\audio\apl-todo\David Byrne - The Catherine Wheel\08 - The Red House.wav

Peak level 80.9 %
Extraction speed 10.2 X
Track quality 100.0 %
Test CRC 605D61CE
Copy CRC 605D61CE
Accurately ripped (confidence 20) [BCFB4814] (AR v2)
Copy OK

Track 9

Filename C:\audio\apl-todo\David Byrne - The Catherine Wheel\09 - Wheezing.wav

Peak level 94.3 %
Extraction speed 10.5 X
Track quality 100.0 %
Test CRC 4040C645
Copy CRC 4040C645
Accurately ripped (confidence 20) [E3F462C6] (AR v2)
Copy OK

Track 10

Filename C:\audio\apl-todo\David Byrne - The Catherine Wheel\10 - Eggs In A Briar Patch.wav

Peak level 82.0 %
Extraction speed 11.1 X
Track quality 100.0 %
Test CRC 8A3586F1
Copy CRC 8A3586F1
Accurately ripped (confidence 20) [6DEBD657] (AR v2)
Copy OK

Track 11

Filename C:\audio\apl-todo\David Byrne - The Catherine Wheel\11 - Poison.wav

Peak level 97.3 %
Extraction speed 10.7 X
Track quality 100.0 %
Test CRC E57F175B
Copy CRC E57F175B
Accurately ripped (confidence 20) [25501790] (AR v2)
Copy OK

Track 12

Filename C:\audio\apl-todo\David Byrne - The Catherine Wheel\12 - Cloud Chamber.wav

Peak level 73.1 %
Extraction speed 11.9 X
Track quality 100.0 %
Test CRC BD5809B0
Copy CRC BD5809B0
Accurately ripped (confidence 20) [F7DCC8B2] (AR v2)
Copy OK

Track 13

Filename C:\audio\apl-todo\David Byrne - The Catherine Wheel\13 - Black Flag.wav

Peak level 71.8 %
Extraction speed 11.2 X
Track quality 100.0 %
Test CRC A77C080F
Copy CRC A77C080F
Accurately ripped (confidence 20) [CD973A21] (AR v2)
Copy OK

Track 14

Filename C:\audio\apl-todo\David Byrne - The Catherine Wheel\14 - My Big Hands (Fall Through The Cracks).wav

Pre-gap length 0:00:00.70

Peak level 77.9 %
Extraction speed 11.8 X
Track quality 100.0 %
Test CRC 79D6C873
Copy CRC 79D6C873
Accurately ripped (confidence 20) [29E8D7E4] (AR v2)
Copy OK

Track 15

Filename C:\audio\apl-todo\David Byrne - The Catherine Wheel\15 - Combat.wav

Peak level 73.0 %
Extraction speed 12.0 X
Track quality 100.0 %
Test CRC A211E68B
Copy CRC A211E68B
Accurately ripped (confidence 20) [E2E083D6] (AR v2)
Copy OK

Track 16

Filename C:\audio\apl-todo\David Byrne - The Catherine Wheel\16 - Leg Bells.wav

Peak level 67.5 %
Extraction speed 9.4 X
Track quality 99.9 %
Test CRC A123A29D
Copy CRC A123A29D
Accurately ripped (confidence 20) [B616C3BA] (AR v2)
Copy OK

Track 17

Filename C:\audio\apl-todo\David Byrne - The Catherine Wheel\17 - The Blue Flame.wav

Peak level 86.2 %
Extraction speed 13.1 X
Track quality 100.0 %
Test CRC E126AE4B
Copy CRC E126AE4B
Accurately ripped (confidence 19) [A6603F5D] (AR v2)
Copy OK

Track 18

Filename C:\audio\apl-todo\David Byrne - The Catherine Wheel\18 - Big Business.wav

Peak level 100.0 %
Extraction speed 14.2 X
Track quality 100.0 %
Test CRC 3D7A894F
Copy CRC 3D7A894F
Accurately ripped (confidence 20) [D9C9A932] (AR v2)
Copy OK

Track 19

Filename C:\audio\apl-todo\David Byrne - The Catherine Wheel\19 - Dense Beasts.wav

Peak level 94.7 %
Extraction speed 10.6 X
Track quality 99.9 %
Test CRC D1F660D1
Copy CRC D1F660D1
Accurately ripped (confidence 20) [F6377210] (AR v2)
Copy OK

Track 20

Filename C:\audio\apl-todo\David Byrne - The Catherine Wheel\20 - Five Golden Sections.wav

Peak level 81.7 %
Extraction speed 13.1 X
Track quality 100.0 %
Test CRC 2DCDB70B
Copy CRC 2DCDB70B
Accurately ripped (confidence 20) [EB0F6CFD] (AR v2)
Copy OK

Track 21

Filename C:\audio\apl-todo\David Byrne - The Catherine Wheel\21 - What A Day That Was.wav

Peak level 96.4 %
Extraction speed 15.4 X
Track quality 100.0 %
Test CRC CAB7154F
Copy CRC CAB7154F
Accurately ripped (confidence 19) [42A9A980] (AR v2)
Copy OK

Track 22

Filename C:\audio\apl-todo\David Byrne - The Catherine Wheel\22 - Big Blue Plymouth (Eyes Wide Open).wav

Peak level 100.0 %
Extraction speed 16.8 X
Track quality 100.0 %
Test CRC 8EE4D3E8
Copy CRC 8EE4D3E8
Accurately ripped (confidence 20) [C4F36099] (AR v2)
Copy OK

Track 23

Filename C:\audio\apl-todo\David Byrne - The Catherine Wheel\23 - Light Bath.wav

Peak level 66.7 %
Extraction speed 11.8 X
Track quality 100.0 %
Test CRC E0E36FA2
Copy CRC E0E36FA2
Accurately ripped (confidence 20) [BFF1F505] (AR v2)
Copy OK


All tracks accurately ripped

No errors occurred

End of status report

–– CUETools DB Plugin V2.1.6

[CTDB TOCID: 8B6_EKhWkGuqa2zuA0MPyN3CgX4-] found
Submit result: already submitted
Track | CTDB Status
1 | (24/25) Accurately ripped
2 | (24/25) Accurately ripped
3 | (24/25) Accurately ripped
4 | (24/25) Accurately ripped
5 | (24/25) Accurately ripped
6 | (24/25) Accurately ripped
7 | (24/25) Accurately ripped
8 | (23/25) Accurately ripped
9 | (24/25) Accurately ripped
10 | (24/25) Accurately ripped
11 | (24/25) Accurately ripped
12 | (24/25) Accurately ripped
13 | (24/25) Accurately ripped
14 | (24/25) Accurately ripped
15 | (24/25) Accurately ripped
16 | (24/25) Accurately ripped
17 | (24/25) Accurately ripped
18 | (24/25) Accurately ripped
19 | (24/25) Accurately ripped
20 | (24/25) Accurately ripped
21 | (24/25) Accurately ripped
22 | (24/25) Accurately ripped
23 | (24/25) Accurately ripped


==== Log checksum AB9F0C08161AAE525DA07051D2D33370683703D3367416034408D31A133776E5 ====

Thanks to the Original ripper oilslump !