Subcategories

Dead Lord - In Ignorance We Trust (2017)

Posted By: delpotro
Dead Lord - In Ignorance We Trust (2017)

Dead Lord - In Ignorance We Trust (2017)
EAC Rip | FLAC (image+log+.cue) | Scans included | 00:40:56 | 303 Mb
Hard Rock, Classic Rock | Label: Century Media Records

Sweden's Hard rockers number One - DEAD LORD present almost exactly two years after the wildly acclaimed 'Heads held High' in her much-anticipated, third Studio album. 'In Ignorance We Trust' is a Prime example of timeless, earthy, authentic Rock music, such as the previous just because of Hakim Krims Vocals seriously Thin Lizzy inspired, but in addition to its famous guitar runs, the song also has many other musical provide cross-references. Led Zep, Motorhead, Kiss, BÖC, UFO Songs such as 'Reruns', and 'Too Late', with a very permeable Backing Vocals-enriched 'Kill Them All', the ballad 'Part Of Me' or 'Darker Times' are on the one hand, a Declaration of love to classic Rock, and on the other hand, excellent, catchy Songs that inspire with timelessness and not by a pure Retro charm. Known as an intense and charismatic Live Band, DEAD LORD a teaser already from June, the new Material at several Festivals and is expected to top the remarkable success of its predecessor, the locker. A real Highlight for all hard rockers!
Tracklist:
1 Ignorance
2 Too Late
3 Reruns
4 Leave Me Be
5 The Glitch
6 Kill Them All
7 Never Die
8 Part of Me
9 They!
10 Darker Times

Exact Audio Copy V1.1 from 23. June 2015

EAC extraction logfile from 19. September 2017, 0:43

Dead Lord / In Ignorance We Trust (88985459752)

Used drive : PIONEER BD-RW BDR-209D Adapter: 0 ID: 5

Read mode : Secure
Utilize accurate stream : Yes
Defeat audio cache : Yes
Make use of C2 pointers : No

Read offset correction : 667
Overread into Lead-In and Lead-Out : No
Fill up missing offset samples with silence : Yes
Delete leading and trailing silent blocks : No
Null samples used in CRC calculations : Yes
Used interface : Installed external ASPI interface

Used output format : User Defined Encoder
Selected bitrate : 768 kBit/s
Quality : High
Add ID3 tag : No
Command line compressor : C:\Program Files (x86)\Exact Audio Copy\FLAC\FLAC.EXE
Additional command line options : -6 -V -T "ARTIST=%artist%" -T "TITLE=%title%" -T "ALBUM=%albumtitle%" -T "DATE=%year%" -T "TRACKNUMBER=%tracknr%" -T "GENRE=%genre%" -T "COMMENT=%comment%" -T "BAND=%albuminterpret%" -T "ALBUMARTIST=%albuminterpret%" -T "COMPOSER=%composer%" %haslyrics%–tag-from-file=LYRICS="%lyricsfile%"%haslyrics% -T "DISCNUMBER=%cdnumber%" -T "TOTALDISCS=%totalcds%" -T "TOTALTRACKS=%numtracks%" %hascover%–picture="%coverfile%"%hascover% %source% -o %dest%


TOC of the extracted CD

Track | Start | Length | Start sector | End sector
––––––––––––––––––––––––––––-
1 | 0:00.00 | 4:16.44 | 0 | 19243
2 | 4:16.44 | 3:32.67 | 19244 | 35210
3 | 7:49.36 | 3:55.71 | 35211 | 52906
4 | 11:45.32 | 4:30.59 | 52907 | 73215
5 | 16:16.16 | 4:05.14 | 73216 | 91604
6 | 20:21.30 | 3:28.64 | 91605 | 107268
7 | 23:50.19 | 3:48.48 | 107269 | 124416
8 | 27:38.67 | 4:57.00 | 124417 | 146691
9 | 32:35.67 | 4:28.18 | 146692 | 166809
10 | 37:04.10 | 3:52.54 | 166810 | 184263


Range status and errors

Selected range

Filename E:\MUSIC\Dead Lord - In Ignorance We Trust (88985459752).wav

Peak level 100.0 %
Extraction speed 2.8 X
Range quality 100.0 %
Test CRC 8903D087
Copy CRC 8903D087
Copy OK

No errors occurred


AccurateRip summary

Track 1 not present in database
Track 2 not present in database
Track 3 not present in database
Track 4 not present in database
Track 5 not present in database
Track 6 not present in database
Track 7 not present in database
Track 8 not present in database
Track 9 not present in database
Track 10 not present in database

None of the tracks are present in the AccurateRip database

End of status report

==== Log checksum 243E84001767C9671D74353CB3E39EDABC0A3F7B649287B42A301FFECBA4538B ====



Dead Lord - In Ignorance We Trust (2017)

Thanks to the Original ripper HaRD !