Subcategories

Dean Martin - Icon (2012) [20 Tracks Edition]

Posted By: SuniR
Dean Martin - Icon (2012) [20 Tracks Edition]

Dean Martin - Icon (2012) [20 Tracks Edition]
EAC | FLAC (log,tracks+cue) -> 335 Mb (5% Rec.)
Mp3 CBR320 Kbps -> 137 Mb (5% Rec.) | Scans included
Vocal Jazz, Traditional Pop, Easy Listening | Label: Universal Music, #:5338395 / 6 00753 38395 7 | 0:53:30

Dean Martin brought such an easygoing “I’m-just-doing-this-because-I-like-to-do-this” style to the songs he sang that it’s easy to miss how good and how distinctive he was as a vocalist. He warmly glided and purred through his performances, working the phrasing in the songs he did until they sounded perfectly suited for him. He didn’t try to be definitive. He just turned everything he sang into a Dean Martin song. This brief (11 tracks) collection has a couple of his biggest hits, "You're Nobody 'Til Somebody Loves You" and "Everybody Loves Somebody," both of which suggest that love is one big, unbreakable, inescapable loop. It doesn't tell Martin's whole story as a recording artist, of course, but then it does, since Martin never changed much – he was his own unflappably cool brand throughout his whole career. –Steve Leggett, AllMusic

Tracklist:

01. Everybody Loves Somebody 02:46
02. You're Nobody 'Til Somebody Loves You 01:58
03. I Will 02:23
04. Send Me The Pillow You Dream On 02:31
05. Houston 02:43
06. In The Chapel In The Moonlight 02:33
07. Little Ole Wine Drinker Me 02:49
08. (Remember Me) I'm The One Who Loves You 02:26
09. Somewhere There's A Someone 02:16
10. Come Running Back 02:09
11. The Door Is Still Open (To My Heart) 02:53
12. Every Minute, Every Hour 02:10
13. Baby-O 03:00
14. C'est Si Bon 02:54
15. Amor Mio 02:44
16. She's A Little Bit Of Country 02:34
17. Lay Some Happiness On Me 02:22
18. Corrine, Corrina 02:43
19. A Million And One 05:12
20. Gimme A Little Kiss, Will Ya, Huh? 02:15

Exact Audio Copy V1.0 beta 3 from 29. August 2011

EAC extraction logfile from 7. June 2013, 15:39

Dean Martin / Dean Martin - Icon

Used drive : HL-DT-STDVDRAM GH22NS50 Adapter: 2 ID: 1

Read mode : Secure
Utilize accurate stream : Yes
Defeat audio cache : Yes
Make use of C2 pointers : Yes

Read offset correction : 667
Overread into Lead-In and Lead-Out : No
Fill up missing offset samples with silence : Yes
Delete leading and trailing silent blocks : No
Null samples used in CRC calculations : Yes
Used interface : Native Win32 interface for Win NT & 2000
Gap handling : Appended to previous track

Used output format : User Defined Encoder
Selected bitrate : 896 kBit/s
Quality : High
Add ID3 tag : Yes
Command line compressor : C:\MMProgram\Exact Audio Copy\FLAC\FLAC.EXE
Additional command line options : -6 -V -T "ARTIST=%artist%" -T "TITLE=%title%" -T "ALBUM=%albumtitle%" -T "DATE=%year%" -T "TRACKNUMBER=%tracknr%" -T "GENRE=%genre%" -T "COMMENT=%comment%" -T "BAND=%albuminterpret%" -T "ALBUMARTIST=%albuminterpret%" -T "COMPOSER=%composer%" %haslyrics%–tag-from-file=LYRICS="%lyricsfile%"%haslyrics% -T "DISCNUMBER=%cdnumber%" -T "TOTALDISCS=%totalcds%" -T "TOTALTRACKS=%numtracks%" %hascover%–picture="%coverfile%"%hascover% %source% -o %dest%


TOC of the extracted CD

Track | Start | Length | Start sector | End sector
––––––––––––––––––––––––––––-
1 | 0:00.00 | 2:46.53 | 0 | 12502
2 | 2:46.53 | 1:58.27 | 12503 | 21379
3 | 4:45.05 | 2:23.50 | 21380 | 32154
4 | 7:08.55 | 2:31.48 | 32155 | 43527
5 | 9:40.28 | 2:43.13 | 43528 | 55765
6 | 12:23.41 | 2:33.52 | 55766 | 67292
7 | 14:57.18 | 2:49.40 | 67293 | 80007
8 | 17:46.58 | 2:26.06 | 80008 | 90963
9 | 20:12.64 | 2:16.19 | 90964 | 101182
10 | 22:29.08 | 2:09.23 | 101183 | 110880
11 | 24:38.31 | 2:53.71 | 110881 | 123926
12 | 27:32.27 | 2:10.49 | 123927 | 133725
13 | 29:43.01 | 3:00.65 | 133726 | 147290
14 | 32:43.66 | 2:54.28 | 147291 | 160368
15 | 35:38.19 | 2:44.25 | 160369 | 172693
16 | 38:22.44 | 2:34.43 | 172694 | 184286
17 | 40:57.12 | 2:22.10 | 184287 | 194946
18 | 43:19.22 | 2:43.16 | 194947 | 207187
19 | 46:02.38 | 5:12.11 | 207188 | 230598
20 | 48:59.12 | 2:15.37 | 220437 | 230598


Track 1

Filename C:\mm\Dean Martin\2012 - Icon\01 - Everybody Loves Somebody.wav

Pre-gap length 0:00:02.00

Peak level 90.5 %
Extraction speed 1.4 X
Track quality 100.0 %
Test CRC 609F41C5
Copy CRC 609F41C5
Track not present in AccurateRip database
Copy OK

Track 2

Filename C:\mm\Dean Martin\2012 - Icon\02 - You're Nobody 'Til Somebody Loves You.wav

Pre-gap length 0:00:02.02

Peak level 85.3 %
Extraction speed 1.4 X
Track quality 100.0 %
Test CRC 7E094940
Copy CRC 7E094940
Track not present in AccurateRip database
Copy OK

Track 3

Filename C:\mm\Dean Martin\2012 - Icon\03 - I Will.wav

Pre-gap length 0:00:01.47

Peak level 75.6 %
Extraction speed 1.5 X
Track quality 100.0 %
Test CRC D141B82B
Copy CRC D141B82B
Track not present in AccurateRip database
Copy OK

Track 4

Filename C:\mm\Dean Martin\2012 - Icon\04 - Send Me The Pillow You Dream On.wav

Pre-gap length 0:00:01.25

Peak level 98.7 %
Extraction speed 1.6 X
Track quality 100.0 %
Test CRC 7218CFB0
Copy CRC 7218CFB0
Track not present in AccurateRip database
Copy OK

Track 5

Filename C:\mm\Dean Martin\2012 - Icon\05 - Houston.wav

Pre-gap length 0:00:01.35

Peak level 98.6 %
Extraction speed 1.4 X
Track quality 99.8 %
Test CRC 8C34A251
Copy CRC 8C34A251
Track not present in AccurateRip database
Copy OK

Track 6

Filename C:\mm\Dean Martin\2012 - Icon\06 - In The Chapel In The Moonlight.wav

Pre-gap length 0:00:01.56

Peak level 82.3 %
Extraction speed 1.9 X
Track quality 100.0 %
Test CRC E4FA57C0
Copy CRC E4FA57C0
Track not present in AccurateRip database
Copy OK

Track 7

Filename C:\mm\Dean Martin\2012 - Icon\07 - Little Ole Wine Drinker Me.wav

Pre-gap length 0:00:01.60

Peak level 88.1 %
Extraction speed 1.6 X
Track quality 99.8 %
Test CRC 60272A55
Copy CRC 60272A55
Track not present in AccurateRip database
Copy OK

Track 8

Filename C:\mm\Dean Martin\2012 - Icon\08 - (Remember Me) I'm The One Who Loves You.wav

Pre-gap length 0:00:02.34

Peak level 93.5 %
Extraction speed 2.0 X
Track quality 100.0 %
Test CRC AC7CE905
Copy CRC AC7CE905
Track not present in AccurateRip database
Copy OK

Track 9

Filename C:\mm\Dean Martin\2012 - Icon\09 - Somewhere There's A Someone.wav

Pre-gap length 0:00:01.11

Peak level 81.5 %
Extraction speed 1.9 X
Track quality 100.0 %
Test CRC C46B7958
Copy CRC C46B7958
Track not present in AccurateRip database
Copy OK

Track 10

Filename C:\mm\Dean Martin\2012 - Icon\10 - Come Running Back.wav

Pre-gap length 0:00:01.34

Peak level 91.5 %
Extraction speed 2.0 X
Track quality 100.0 %
Test CRC B56CBAB4
Copy CRC B56CBAB4
Track not present in AccurateRip database
Copy OK

Track 11

Filename C:\mm\Dean Martin\2012 - Icon\11 - The Door Is Still Open (To My Heart).wav

Pre-gap length 0:00:01.62

Peak level 94.5 %
Extraction speed 2.2 X
Track quality 100.0 %
Test CRC F97FB484
Copy CRC F97FB484
Track not present in AccurateRip database
Copy OK

Track 12

Filename C:\mm\Dean Martin\2012 - Icon\12 - Every Minute, Every Hour.wav

Pre-gap length 0:00:02.02

Peak level 93.3 %
Extraction speed 1.6 X
Track quality 99.8 %
Test CRC 32907DEE
Copy CRC 32907DEE
Track not present in AccurateRip database
Copy OK

Track 13

Filename C:\mm\Dean Martin\2012 - Icon\13 - Baby-O.wav

Pre-gap length 0:00:02.47

Peak level 83.6 %
Extraction speed 2.4 X
Track quality 100.0 %
Test CRC F8E8DEB3
Copy CRC F8E8DEB3
Track not present in AccurateRip database
Copy OK

Track 14

Filename C:\mm\Dean Martin\2012 - Icon\14 - C'est Si Bon.wav

Pre-gap length 0:00:02.27

Peak level 83.1 %
Extraction speed 2.5 X
Track quality 100.0 %
Test CRC 279371D8
Copy CRC 279371D8
Track not present in AccurateRip database
Copy OK

Track 15

Filename C:\mm\Dean Martin\2012 - Icon\15 - Amor Mio.wav

Pre-gap length 0:00:01.70

Peak level 83.1 %
Extraction speed 2.4 X
Track quality 100.0 %
Test CRC 3E194FFD
Copy CRC 3E194FFD
Track not present in AccurateRip database
Copy OK

Track 16

Filename C:\mm\Dean Martin\2012 - Icon\16 - She's A Little Bit Of Country.wav

Pre-gap length 0:00:01.15

Peak level 93.3 %
Extraction speed 2.5 X
Track quality 100.0 %
Test CRC 6CD88467
Copy CRC 6CD88467
Track not present in AccurateRip database
Copy OK

Track 17

Filename C:\mm\Dean Martin\2012 - Icon\17 - Lay Some Happiness On Me.wav

Pre-gap length 0:00:01.29

Peak level 98.6 %
Extraction speed 1.9 X
Track quality 99.8 %
Test CRC B6151B17
Copy CRC B6151B17
Track not present in AccurateRip database
Copy OK

Track 18

Filename C:\mm\Dean Martin\2012 - Icon\18 - Corrine, Corrina.wav

Pre-gap length 0:00:02.39

Peak level 96.2 %
Extraction speed 2.7 X
Track quality 100.0 %
Test CRC 724F14FA
Copy CRC 724F14FA
Track not present in AccurateRip database
Copy OK

Track 19

Filename C:\mm\Dean Martin\2012 - Icon\19 - A Million And One.wav

Pre-gap length 0:00:02.04

Peak level 92.2 %
Extraction speed 3.2 X
Track quality 100.0 %
Test CRC A8926DE2
Copy CRC A8926DE2
Track not present in AccurateRip database
Copy OK

Track 20

Filename C:\mm\Dean Martin\2012 - Icon\20 - Gimme A Little Kiss, Will Ya, Huh.wav

Pre-gap length 0:00:01.27

Peak level 88.0 %
Extraction speed 2.7 X
Track quality 100.0 %
Test CRC 9D8E61B7
Copy CRC 9D8E61B7
Track not present in AccurateRip database
Copy OK


None of the tracks are present in the AccurateRip database

No errors occurred

End of status report

==== Log checksum 380CDF4945F2AC5C4F65978DF45271FD99376886FF8F43DCAA3719F7D30B3B93 ====

foobar2000 1.3.6 / Dynamic Range Meter 1.1.1
log date: 2017-07-15 18:33:51

––––––––––––––––––––––––––––––––––––––––
Analyzed: Dean Martin / Dean Martin - Icon
––––––––––––––––––––––––––––––––––––––––

DR Peak RMS Duration Track
––––––––––––––––––––––––––––––––––––––––
DR9 -0.86 dB -12.38 dB 2:47 01-Everybody Loves Somebody
DR9 -1.38 dB -12.18 dB 1:58 02-You're Nobody 'Til Somebody Loves You
DR9 -2.42 dB -13.56 dB 2:24 03-I Will
DR10 -0.11 dB -13.24 dB 2:32 04-Send Me The Pillow You Dream On
DR11 -0.11 dB -15.50 dB 2:43 05-Houston
DR10 -1.68 dB -13.79 dB 2:34 06-In The Chapel In The Moonlight
DR11 -1.10 dB -14.62 dB 2:50 07-Little Ole Wine Drinker Me
DR11 -0.58 dB -14.51 dB 2:26 08-(Remember Me) I'm The One Who Loves You
DR9 -1.77 dB -12.87 dB 2:16 09-Somewhere There's A Someone
DR11 -0.77 dB -14.75 dB 2:09 10-Come Running Back
DR11 -0.49 dB -14.37 dB 2:54 11-The Door Is Still Open (To My Heart)
DR11 -0.60 dB -14.61 dB 2:11 12-Every Minute, Every Hour
DR10 -1.55 dB -15.71 dB 3:01 13-Baby-O
DR10 -1.61 dB -14.95 dB 2:54 14-C'est Si Bon
DR11 -1.61 dB -15.22 dB 2:44 15-Amor Mio
DR11 -0.60 dB -14.28 dB 2:35 16-She's A Little Bit Of Country
DR11 -0.11 dB -14.00 dB 2:22 17-Lay Some Happiness On Me
DR10 -0.33 dB -13.04 dB 2:43 18-Corrine, Corrina
DR11 -0.70 dB -15.04 dB 5:12 19-A Million And One
DR13 -1.10 dB -17.37 dB 2:15 20-Gimme A Little Kiss, Will Ya, Huh?
––––––––––––––––––––––––––––––––––––––––

Number of tracks: 20
Official DR value: DR10

Samplerate: 44100 Hz
Channels: 2
Bits per sample: 16
Bitrate: 691 kbps
Codec: FLAC
================================================================================

Thanks to the original releaser