Subcategories

The Deep River Boys - London Harmony (DCD 2004)

Posted By: Justin
The Deep River Boys - London Harmony (DCD 2004)

The Deep River Boys - London Harmony (DCD 2004)
2x EAC-FLAC(tracks) with CUE & LOG - 310 MB | Full Scans | MP3 CBR 320 Kbps - 272 MB
Oldies / Harmony Vocal Group / Early R&B | 120:10 mins | Label: Acrobat M&M Ltd. | Cat. # ADMCD 5001

The Deep River Boys were an American gospel music group active from the mid 1930s to the mid 1950s. The group performed spirituals, gospel, and R&B. This definitive set contains many of the recordings made in the UK by Harry Douglas.


The Deep River Boys left a legacy of fine recordings during their 50 years of performing, setting a standard for professionalism and longevity that is to be envied. They began recording as a gospel act in the late '40s and later switched over and became an R&B act and were more popular in Europe for periods of time before coming home to the States for triumphant return engagements.

Like many vocal groups in their day, the Deep River Boys had more success with live performance than record sales, and it wasn't until 1948's "Recess in Heaven" that they enjoyed their first hit. Unfortunately, the newer R&B was just then emerging and their gospel sound was being pushed aside by popular vocal groups like the Dominoes, the Orioles, and the Ravens. Unlike the 5 Royales (a gospel group who began recording R&B sides for Apollo), the Deep River Boys were reluctant to change; instead, they followed the path of another great gospel group of the '40s – the Delta Rhythm Boys – and began performing more often in Europe.

They spent the early '50s shuttling back and forth, working in America with the Count Basie Band during 1951 and Erskine Hawkins, but also signed on for a record-breaking ten-week engagement at the London Palladium. They later left RCA for the independent Beacon Records label, which had been reactivated by owner Joe Davis. However, several singles for Beacon failed to generate any new interest and the Boys returned to RCA. In September of 1953, Cam Williams replaced Jim Lundy and the newly configured Deep River Boys returned to England and signed on for a nine-week appearance at the London Palladium. In the springtime of 1954, they once again found themselves back on Davis' Beacon Records for a second time. Throughout the rest of their career, the Deep River Boys continued to have sporadic releases on labels such as the RCA-subsidiary Vik Records, as well as Gallant and Wand.

– Bryan Thomas, allmusic.com

Tracks:

Disc One
01. That Lucky Old Sun
02. Too-Whit, Too-Whoo
03. Down In The Glen
04. Oh Tell Me Gypsy
05. Bewitched
06. Ashes Of Roses
07. I Still Love You
08. September Song
09. The Stars Are The Windows Of Heaven
10. Mister And Mississippi
11. May The Good Lord Bless And Keep You
12. Too Young
13. My Yiddisher Momma
14. Eili Eili
15. Deep Water
16. I Won't Cry Anymore
17. (It's No) Sin
18. Glad Rag Doll
19. Don't Trade Your Love For Gold
20. Only Fascination
21. Trying
22. Tennessee News Boy

Disc Two
01. A Kiss And A Cuddle Polka
02. Sweet Mama Tree Top Tall
03. My Castle On The Nile
04. Lucky Black Cat
05. Romance Al A Mode
06. Shake Rattle & Roll
07. St Louis Blues
08. Smack Dab In The Middle
09. I Wonder
10. Rock Around The Clock
11. Adam Never Had Any Mammy
12. Rock A Beatin' Boogie
13. Just A Little Bit More
14. That's Right
15. Honey Honey
16. Whole Lotta Shakin' Goin' On
17. There's A Goldmine In The Sky
18. Not Too Old To Rock And Roll
19. Slow Train To Nowhere
20. I'm Confessin'
21. Itchy Twitchy Feelin'

More information @ Wikipedia


Exact Audio Copy V1.0 beta 1 from 15. November 2010

EAC extraction logfile from 29. May 2011, 17:19

The Deep River Boys / London Harmony - Disc 1

Used drive : PLEXTOR CD-R PREMIUM Adapter: 0 ID: 1

Read mode : Secure
Utilize accurate stream : Yes
Defeat audio cache : Yes
Make use of C2 pointers : No

Read offset correction : 30
Overread into Lead-In and Lead-Out : Yes
Fill up missing offset samples with silence : Yes
Delete leading and trailing silent blocks : No
Null samples used in CRC calculations : Yes
Used interface : Installed external ASPI interface
Gap handling : Appended to previous track

Used output format : User Defined Encoder
Selected bitrate : 256 kBit/s
Quality : High
Add ID3 tag : No
Command line compressor : D:\Program Files\Exact Audio Copy\FLAC\FLAC.EXE
Additional command line options : -8 -V -T "ARTIST=%a" -T "TITLE=%t" -T "ALBUM=%g" -T "DATE=%y" -T "TRACKNUMBER=%n" -T "TOTALTRACKS=%x" -T "GENRE=%m" -T "ALBUMARTIST=%v" -T "ALBUM ARTIST=%v" -T "COMMENT=EAC Secure Mode, Test & Copy, AccurateRip, FLAC -8" %s


TOC of the extracted CD

Track | Start | Length | Start sector | End sector
––––––––––––––––––––––––––––-
1 | 0:00.00 | 2:27.70 | 0 | 11094
2 | 2:27.70 | 3:03.22 | 11095 | 24841
3 | 5:31.17 | 3:18.72 | 24842 | 39763
4 | 8:50.14 | 3:11.73 | 39764 | 54161
5 | 12:02.12 | 2:55.60 | 54162 | 67346
6 | 14:57.72 | 2:47.46 | 67347 | 79917
7 | 17:45.43 | 2:13.05 | 79918 | 89897
8 | 19:58.48 | 2:42.40 | 89898 | 102087
9 | 22:41.13 | 2:45.03 | 102088 | 114465
10 | 25:26.16 | 3:10.26 | 114466 | 128741
11 | 28:36.42 | 2:49.67 | 128742 | 141483
12 | 31:26.34 | 3:07.43 | 141484 | 155551
13 | 34:34.02 | 3:27.18 | 155552 | 171094
14 | 38:01.20 | 3:46.38 | 171095 | 188082
15 | 41:47.58 | 2:25.46 | 188083 | 199003
16 | 44:13.29 | 2:41.22 | 199004 | 211100
17 | 46:54.51 | 2:50.15 | 211101 | 223865
18 | 49:44.66 | 3:00.06 | 223866 | 237371
19 | 52:44.72 | 3:10.01 | 237372 | 251622
20 | 55:54.73 | 3:44.39 | 251623 | 268461
21 | 59:39.37 | 2:48.45 | 268462 | 281106
22 | 62:28.07 | 2:09.71 | 281107 | 290852


Track 1

Filename I:\The Deep River Boys - London Harmony (2004) [FLAC] {2 CD set}\Disc 1of2\01 - That Lucky Old Sun.wav

Pre-gap length 0:00:02.00

Peak level 59.0 %
Extraction speed 4.4 X
Track quality 100.0 %
Test CRC A5C56F9B
Copy CRC A5C56F9B
Track not present in AccurateRip database
Copy OK

Track 2

Filename I:\The Deep River Boys - London Harmony (2004) [FLAC] {2 CD set}\Disc 1of2\02 - Too-Whit, Too-Whoo.wav

Pre-gap length 0:00:02.67

Peak level 95.1 %
Extraction speed 3.7 X
Track quality 99.9 %
Test CRC 095C846E
Copy CRC 095C846E
Track not present in AccurateRip database
Copy OK

Track 3

Filename I:\The Deep River Boys - London Harmony (2004) [FLAC] {2 CD set}\Disc 1of2\03 - Down In The Glen.wav

Pre-gap length 0:00:02.68

Peak level 68.5 %
Extraction speed 5.5 X
Track quality 100.0 %
Test CRC 8A29BC49
Copy CRC 8A29BC49
Track not present in AccurateRip database
Copy OK

Track 4

Filename I:\The Deep River Boys - London Harmony (2004) [FLAC] {2 CD set}\Disc 1of2\04 - Oh Tell Me Gypsy.wav

Pre-gap length 0:00:02.40

Peak level 100.0 %
Extraction speed 5.8 X
Track quality 100.0 %
Test CRC 932E779A
Copy CRC 932E779A
Track not present in AccurateRip database
Copy OK

Track 5

Filename I:\The Deep River Boys - London Harmony (2004) [FLAC] {2 CD set}\Disc 1of2\05 - Bewitched.wav

Pre-gap length 0:00:02.63

Peak level 80.2 %
Extraction speed 6.0 X
Track quality 100.0 %
Test CRC 814ED83A
Copy CRC 814ED83A
Track not present in AccurateRip database
Copy OK

Track 6

Filename I:\The Deep River Boys - London Harmony (2004) [FLAC] {2 CD set}\Disc 1of2\06 - Ashes Of Roses.wav

Pre-gap length 0:00:02.58

Peak level 50.4 %
Extraction speed 6.2 X
Track quality 100.0 %
Test CRC 24EFECC9
Copy CRC 24EFECC9
Track not present in AccurateRip database
Copy OK

Track 7

Filename I:\The Deep River Boys - London Harmony (2004) [FLAC] {2 CD set}\Disc 1of2\07 - I Still Love You.wav

Pre-gap length 0:00:02.47

Peak level 100.0 %
Extraction speed 6.1 X
Track quality 100.0 %
Test CRC 04E0A32E
Copy CRC 04E0A32E
Track not present in AccurateRip database
Copy OK

Track 8

Filename I:\The Deep River Boys - London Harmony (2004) [FLAC] {2 CD set}\Disc 1of2\08 - September Song.wav

Pre-gap length 0:00:02.62

Peak level 68.1 %
Extraction speed 6.5 X
Track quality 100.0 %
Test CRC C5BBAB0D
Copy CRC C5BBAB0D
Track not present in AccurateRip database
Copy OK

Track 9

Filename I:\The Deep River Boys - London Harmony (2004) [FLAC] {2 CD set}\Disc 1of2\09 - The Stars Are The Windows Of Heaven.wav

Pre-gap length 0:00:02.55

Peak level 66.3 %
Extraction speed 5.0 X
Track quality 99.9 %
Test CRC 2C50482D
Copy CRC 2C50482D
Track not present in AccurateRip database
Copy OK

Track 10

Filename I:\The Deep River Boys - London Harmony (2004) [FLAC] {2 CD set}\Disc 1of2\10 - Mister And Mississippi.wav

Pre-gap length 0:00:02.59

Peak level 62.8 %
Extraction speed 7.3 X
Track quality 100.0 %
Test CRC 2409E4F3
Copy CRC 2409E4F3
Track not present in AccurateRip database
Copy OK

Track 11

Filename I:\The Deep River Boys - London Harmony (2004) [FLAC] {2 CD set}\Disc 1of2\11 - May The Good Lord Bless And Keep You.wav

Pre-gap length 0:00:02.44

Peak level 52.9 %
Extraction speed 7.4 X
Track quality 100.0 %
Test CRC E87E72BF
Copy CRC E87E72BF
Track not present in AccurateRip database
Copy OK

Track 12

Filename I:\The Deep River Boys - London Harmony (2004) [FLAC] {2 CD set}\Disc 1of2\12 - Too Young.wav

Pre-gap length 0:00:02.47

Peak level 67.1 %
Extraction speed 7.9 X
Track quality 100.0 %
Test CRC 3BA0CB5D
Copy CRC 3BA0CB5D
Track not present in AccurateRip database
Copy OK

Track 13

Filename I:\The Deep River Boys - London Harmony (2004) [FLAC] {2 CD set}\Disc 1of2\13 - My Yiddisher Momma.wav

Pre-gap length 0:00:02.59

Peak level 95.5 %
Extraction speed 8.2 X
Track quality 100.0 %
Test CRC A1790982
Copy CRC A1790982
Track not present in AccurateRip database
Copy OK

Track 14

Filename I:\The Deep River Boys - London Harmony (2004) [FLAC] {2 CD set}\Disc 1of2\14 - Eili Eili.wav

Pre-gap length 0:00:02.52

Peak level 60.4 %
Extraction speed 8.5 X
Track quality 100.0 %
Test CRC 5FB400DE
Copy CRC 5FB400DE
Track not present in AccurateRip database
Copy OK

Track 15

Filename I:\The Deep River Boys - London Harmony (2004) [FLAC] {2 CD set}\Disc 1of2\15 - Deep Water.wav

Pre-gap length 0:00:02.50

Peak level 60.7 %
Extraction speed 8.2 X
Track quality 100.0 %
Test CRC 12D1A880
Copy CRC 12D1A880
Track not present in AccurateRip database
Copy OK

Track 16

Filename I:\The Deep River Boys - London Harmony (2004) [FLAC] {2 CD set}\Disc 1of2\16 - I Won't Cry Anymore.wav

Pre-gap length 0:00:02.60

Peak level 59.3 %
Extraction speed 8.3 X
Track quality 100.0 %
Test CRC 9C848F3E
Copy CRC 9C848F3E
Track not present in AccurateRip database
Copy OK

Track 17

Filename I:\The Deep River Boys - London Harmony (2004) [FLAC] {2 CD set}\Disc 1of2\17 - (It's No) Sin.wav

Pre-gap length 0:00:02.52

Peak level 52.0 %
Extraction speed 8.7 X
Track quality 100.0 %
Test CRC 1FA9D810
Copy CRC 1FA9D810
Track not present in AccurateRip database
Copy OK

Track 18

Filename I:\The Deep River Boys - London Harmony (2004) [FLAC] {2 CD set}\Disc 1of2\18 - Glad Rag Doll.wav

Pre-gap length 0:00:02.54

Peak level 55.4 %
Extraction speed 9.1 X
Track quality 100.0 %
Test CRC 46283A41
Copy CRC 46283A41
Track not present in AccurateRip database
Copy OK

Track 19

Filename I:\The Deep River Boys - London Harmony (2004) [FLAC] {2 CD set}\Disc 1of2\19 - Don't Trade Your Love For Gold.wav

Pre-gap length 0:00:02.66

Peak level 70.2 %
Extraction speed 9.2 X
Track quality 100.0 %
Test CRC 7FB19676
Copy CRC 7FB19676
Track not present in AccurateRip database
Copy OK

Track 20

Filename I:\The Deep River Boys - London Harmony (2004) [FLAC] {2 CD set}\Disc 1of2\20 - Only Fascination.wav

Pre-gap length 0:00:02.67

Peak level 46.4 %
Extraction speed 9.6 X
Track quality 100.0 %
Test CRC 6ED73C65
Copy CRC 6ED73C65
Track not present in AccurateRip database
Copy OK

Track 21

Filename I:\The Deep River Boys - London Harmony (2004) [FLAC] {2 CD set}\Disc 1of2\21 - Trying.wav

Pre-gap length 0:00:02.53

Peak level 63.1 %
Extraction speed 9.2 X
Track quality 100.0 %
Test CRC A5C0256B
Copy CRC A5C0256B
Track not present in AccurateRip database
Copy OK

Track 22

Filename I:\The Deep River Boys - London Harmony (2004) [FLAC] {2 CD set}\Disc 1of2\22 - Tennessee News Boy.wav

Pre-gap length 0:00:02.61

Peak level 76.8 %
Extraction speed 11.4 X
Track quality 100.0 %
Test CRC 2101CC54
Copy CRC 2101CC54
Track not present in AccurateRip database
Copy OK


None of the tracks are present in the AccurateRip database

No errors occurred

End of status report

==== Log checksum E13DA2BAA0D20F7F874A3DD212B717562D5006F181962040EBDC325AB9B4A977 ====

……………………………………………………………………….

Exact Audio Copy V1.0 beta 1 from 15. November 2010

EAC extraction logfile from 29. May 2011, 17:45

The Deep River Boys / London Harmony - Disc 2

Used drive : PLEXTOR CD-R PREMIUM Adapter: 0 ID: 1

Read mode : Secure
Utilize accurate stream : Yes
Defeat audio cache : Yes
Make use of C2 pointers : No

Read offset correction : 30
Overread into Lead-In and Lead-Out : Yes
Fill up missing offset samples with silence : Yes
Delete leading and trailing silent blocks : No
Null samples used in CRC calculations : Yes
Used interface : Installed external ASPI interface
Gap handling : Appended to previous track

Used output format : User Defined Encoder
Selected bitrate : 256 kBit/s
Quality : High
Add ID3 tag : No
Command line compressor : D:\Program Files\Exact Audio Copy\FLAC\FLAC.EXE
Additional command line options : -8 -V -T "ARTIST=%a" -T "TITLE=%t" -T "ALBUM=%g" -T "DATE=%y" -T "TRACKNUMBER=%n" -T "TOTALTRACKS=%x" -T "GENRE=%m" -T "ALBUMARTIST=%v" -T "ALBUM ARTIST=%v" -T "COMMENT=EAC Secure Mode, Test & Copy, AccurateRip, FLAC -8" %s


TOC of the extracted CD

Track | Start | Length | Start sector | End sector
––––––––––––––––––––––––––––-
1 | 0:00.00 | 2:26.01 | 0 | 10950
2 | 2:26.01 | 2:30.54 | 10951 | 22254
3 | 4:56.55 | 2:46.08 | 22255 | 34712
4 | 7:42.63 | 2:25.23 | 34713 | 45610
5 | 10:08.11 | 2:53.03 | 45611 | 58588
6 | 13:01.14 | 2:21.41 | 58589 | 69204
7 | 15:22.55 | 2:52.30 | 69205 | 82134
8 | 18:15.10 | 3:02.11 | 82135 | 95795
9 | 21:17.21 | 2:37.02 | 95796 | 107572
10 | 23:54.23 | 2:39.30 | 107573 | 119527
11 | 26:33.53 | 3:11.63 | 119528 | 133915
12 | 29:45.41 | 2:37.17 | 133916 | 145707
13 | 32:22.58 | 2:23.59 | 145708 | 156491
14 | 34:46.42 | 2:49.06 | 156492 | 169172
15 | 37:35.48 | 2:16.28 | 169173 | 179400
16 | 39:52.01 | 2:39.27 | 179401 | 191352
17 | 42:31.28 | 2:41.49 | 191353 | 203476
18 | 45:13.02 | 2:07.43 | 203477 | 213044
19 | 47:20.45 | 2:22.21 | 213045 | 223715
20 | 49:42.66 | 3:20.49 | 223716 | 238764
21 | 53:03.40 | 2:28.37 | 238765 | 249901


Track 1

Filename I:\The Deep River Boys - London Harmony (2004) [FLAC] {2 CD set}\Disc 2of2\01 - A Kiss And A Cuddle Polka.wav

Pre-gap length 0:00:02.00

Peak level 69.9 %
Extraction speed 4.4 X
Track quality 100.0 %
Test CRC 6CB181B7
Copy CRC 6CB181B7
Track not present in AccurateRip database
Copy OK

Track 2

Filename I:\The Deep River Boys - London Harmony (2004) [FLAC] {2 CD set}\Disc 2of2\02 - Sweet Mama Tree Top Tall.wav

Pre-gap length 0:00:02.43

Peak level 88.9 %
Extraction speed 4.7 X
Track quality 100.0 %
Test CRC 9EDEE628
Copy CRC 9EDEE628
Track not present in AccurateRip database
Copy OK

Track 3

Filename I:\The Deep River Boys - London Harmony (2004) [FLAC] {2 CD set}\Disc 2of2\03 - My Castle On The Nile.wav

Pre-gap length 0:00:02.57

Peak level 68.5 %
Extraction speed 5.1 X
Track quality 100.0 %
Test CRC 02A7F2A5
Copy CRC 02A7F2A5
Track not present in AccurateRip database
Copy OK

Track 4

Filename I:\The Deep River Boys - London Harmony (2004) [FLAC] {2 CD set}\Disc 2of2\04 - Lucky Black Cat.wav

Pre-gap length 0:00:02.56

Peak level 75.3 %
Extraction speed 5.3 X
Track quality 100.0 %
Test CRC A3645293
Copy CRC A3645293
Track not present in AccurateRip database
Copy OK

Track 5

Filename I:\The Deep River Boys - London Harmony (2004) [FLAC] {2 CD set}\Disc 2of2\05 - Romance Al A Mode.wav

Pre-gap length 0:00:02.45

Peak level 58.6 %
Extraction speed 5.7 X
Track quality 100.0 %
Test CRC DFC513A6
Copy CRC DFC513A6
Track not present in AccurateRip database
Copy OK

Track 6

Filename I:\The Deep River Boys - London Harmony (2004) [FLAC] {2 CD set}\Disc 2of2\06 - Shake Rattle & Roll.wav

Pre-gap length 0:00:02.43

Peak level 60.6 %
Extraction speed 5.7 X
Track quality 100.0 %
Test CRC D60CF6F3
Copy CRC D60CF6F3
Track not present in AccurateRip database
Copy OK

Track 7

Filename I:\The Deep River Boys - London Harmony (2004) [FLAC] {2 CD set}\Disc 2of2\07 - St Louis Blues.wav

Pre-gap length 0:00:02.54

Peak level 66.4 %
Extraction speed 6.3 X
Track quality 100.0 %
Test CRC 8052F275
Copy CRC 8052F275
Track not present in AccurateRip database
Copy OK

Track 8

Filename I:\The Deep River Boys - London Harmony (2004) [FLAC] {2 CD set}\Disc 2of2\08 - Smack Dab In The Middle.wav

Pre-gap length 0:00:02.61

Peak level 78.0 %
Extraction speed 6.5 X
Track quality 100.0 %
Test CRC 86D7D259
Copy CRC 86D7D259
Track not present in AccurateRip database
Copy OK

Track 9

Filename I:\The Deep River Boys - London Harmony (2004) [FLAC] {2 CD set}\Disc 2of2\09 - I Wonder.wav

Pre-gap length 0:00:02.53

Peak level 56.5 %
Extraction speed 6.7 X
Track quality 100.0 %
Test CRC A4E64E35
Copy CRC A4E64E35
Track not present in AccurateRip database
Copy OK

Track 10

Filename I:\The Deep River Boys - London Harmony (2004) [FLAC] {2 CD set}\Disc 2of2\10 - Rock Around The Clock.wav

Pre-gap length 0:00:02.66

Peak level 75.8 %
Extraction speed 5.0 X
Track quality 99.9 %
Test CRC 835D4E88
Copy CRC 835D4E88
Track not present in AccurateRip database
Copy OK

Track 11

Filename I:\The Deep River Boys - London Harmony (2004) [FLAC] {2 CD set}\Disc 2of2\11 - Adam Never Had Any Mammy.wav

Pre-gap length 0:00:02.41

Peak level 81.8 %
Extraction speed 7.3 X
Track quality 100.0 %
Test CRC C9AA4910
Copy CRC C9AA4910
Track not present in AccurateRip database
Copy OK

Track 12

Filename I:\The Deep River Boys - London Harmony (2004) [FLAC] {2 CD set}\Disc 2of2\12 - Rock A Beatin' Boogie.wav

Pre-gap length 0:00:02.70

Peak level 100.0 %
Extraction speed 7.3 X
Track quality 100.0 %
Test CRC FA9F78C2
Copy CRC FA9F78C2
Track not present in AccurateRip database
Copy OK

Track 13

Filename I:\The Deep River Boys - London Harmony (2004) [FLAC] {2 CD set}\Disc 2of2\13 - Just A Little Bit More.wav

Pre-gap length 0:00:02.50

Peak level 75.2 %
Extraction speed 5.1 X
Track quality 99.9 %
Test CRC E0EFB295
Copy CRC E0EFB295
Track not present in AccurateRip database
Copy OK

Track 14

Filename I:\The Deep River Boys - London Harmony (2004) [FLAC] {2 CD set}\Disc 2of2\14 - That's Right.wav

Pre-gap length 0:00:02.52

Peak level 62.9 %
Extraction speed 7.7 X
Track quality 100.0 %
Test CRC 317283A4
Copy CRC 317283A4
Track not present in AccurateRip database
Copy OK

Track 15

Filename I:\The Deep River Boys - London Harmony (2004) [FLAC] {2 CD set}\Disc 2of2\15 - Honey Honey.wav

Pre-gap length 0:00:02.48

Peak level 74.5 %
Extraction speed 7.7 X
Track quality 100.0 %
Test CRC BCB86379
Copy CRC BCB86379
Track not present in AccurateRip database
Copy OK

Track 16

Filename I:\The Deep River Boys - London Harmony (2004) [FLAC] {2 CD set}\Disc 2of2\16 - Whole Lotta Shakin' Goin' On.wav

Pre-gap length 0:00:02.62

Peak level 59.6 %
Extraction speed 8.2 X
Track quality 100.0 %
Test CRC 10B4911F
Copy CRC 10B4911F
Track not present in AccurateRip database
Copy OK

Track 17

Filename I:\The Deep River Boys - London Harmony (2004) [FLAC] {2 CD set}\Disc 2of2\17 - There's A Goldmine In The Sky.wav

Pre-gap length 0:00:02.48

Peak level 67.2 %
Extraction speed 8.1 X
Track quality 100.0 %
Test CRC 43ACC9D7
Copy CRC 43ACC9D7
Track not present in AccurateRip database
Copy OK

Track 18

Filename I:\The Deep River Boys - London Harmony (2004) [FLAC] {2 CD set}\Disc 2of2\18 - Not Too Old To Rock And Roll.wav

Pre-gap length 0:00:02.56

Peak level 69.5 %
Extraction speed 7.9 X
Track quality 100.0 %
Test CRC BF8A932A
Copy CRC BF8A932A
Track not present in AccurateRip database
Copy OK

Track 19

Filename I:\The Deep River Boys - London Harmony (2004) [FLAC] {2 CD set}\Disc 2of2\19 - Slow Train To Nowhere.wav

Pre-gap length 0:00:02.59

Peak level 70.5 %
Extraction speed 8.5 X
Track quality 100.0 %
Test CRC 5319CB3B
Copy CRC 5319CB3B
Track not present in AccurateRip database
Copy OK

Track 20

Filename I:\The Deep River Boys - London Harmony (2004) [FLAC] {2 CD set}\Disc 2of2\20 - I'm Confessin'.wav

Pre-gap length 0:00:02.56

Peak level 77.1 %
Extraction speed 9.3 X
Track quality 100.0 %
Test CRC DA622A57
Copy CRC DA622A57
Track not present in AccurateRip database
Copy OK

Track 21

Filename I:\The Deep River Boys - London Harmony (2004) [FLAC] {2 CD set}\Disc 2of2\21 - Itchy Twitchy Feelin'.wav

Pre-gap length 0:00:02.67

Peak level 88.8 %
Extraction speed 10.8 X
Track quality 100.0 %
Test CRC DD183AB9
Copy CRC DD183AB9
Track not present in AccurateRip database
Copy OK


None of the tracks are present in the AccurateRip database

No errors occurred

End of status report

==== Log checksum F9111340627CD212DD11324672647E63FD7229BCC4CA12C7D4C8F5597763473A ====


AUDIOCHECKER v2.0 beta (build 457) - by Dester - opdester@freemail.hu
~~~~~~~~~~~~~~~~~~~~~~~~~~~~~~~~~~
-=== DO NOT EDIT THIS FILE! ===-

Path: …\Disc 1of2

01 -=- 01 - That Lucky Old Sun.wav -=- CDDA (99%)
02 -=- 02 - Too-Whit, Too-Whoo.wav -=- CDDA (99%)
03 -=- 03 - Down In The Glen.wav -=- CDDA (100%)
04 -=- 04 - Oh Tell Me Gypsy.wav -=- CDDA (100%)
05 -=- 05 - Bewitched.wav -=- CDDA (100%)
06 -=- 06 - Ashes Of Roses.wav -=- CDDA (100%)
07 -=- 07 - I Still Love You.wav -=- CDDA (100%)
08 -=- 08 - September Song.wav -=- CDDA (100%)
09 -=- 09 - The Stars Are The Windows Of Heaven.wav -=- CDDA (100%)
10 -=- 10 - Mister And Mississippi.wav -=- CDDA (100%)
11 -=- 11 - May The Good Lord Bless And Keep You.wav -=- CDDA (100%)
12 -=- 12 - Too Young.wav -=- CDDA (100%)
13 -=- 13 - My Yiddisher Momma.wav -=- CDDA (100%)
14 -=- 14 - Eili Eili.wav -=- CDDA (100%)
15 -=- 15 - Deep Water.wav -=- CDDA (99%)
16 -=- 16 - I Won't Cry Anymore.wav -=- CDDA (100%)
17 -=- 17 - (It's No) Sin.wav -=- CDDA (100%)
18 -=- 18 - Glad Rag Doll.wav -=- CDDA (100%)
19 -=- 19 - Don't Trade Your Love For Gold.wav -=- CDDA (100%)
20 -=- 20 - Only Fascination.wav -=- CDDA (100%)
21 -=- 21 - Trying.wav -=- CDDA (100%)
22 -=- 22 - Tennessee News Boy.wav -=- CDDA (100%)

Summary 99,86% CDDA

79320004

……………………………………………………

AUDIOCHECKER v2.0 beta (build 457) - by Dester - opdester@freemail.hu
~~~~~~~~~~~~~~~~~~~~~~~~~~~~~~~~~~
-=== DO NOT EDIT THIS FILE! ===-

Path: …\Disc 2of2

01 -=- 01 - A Kiss And A Cuddle Polka.wav -=- CDDA (99%)
02 -=- 02 - Sweet Mama Tree Top Tall.wav -=- CDDA (100%)
03 -=- 03 - My Castle On The Nile.wav -=- CDDA (100%)
04 -=- 04 - Lucky Black Cat.wav -=- CDDA (100%)
05 -=- 05 - Romance Al A Mode.wav -=- CDDA (100%)
06 -=- 06 - Shake Rattle & Roll.wav -=- CDDA (100%)
07 -=- 07 - St Louis Blues.wav -=- CDDA (100%)
08 -=- 08 - Smack Dab In The Middle.wav -=- CDDA (100%)
09 -=- 09 - I Wonder.wav -=- CDDA (100%)
10 -=- 10 - Rock Around The Clock.wav -=- CDDA (100%)
11 -=- 11 - Adam Never Had Any Mammy.wav -=- CDDA (99%)
12 -=- 12 - Rock A Beatin' Boogie.wav -=- CDDA (100%)
13 -=- 13 - Just A Little Bit More.wav -=- CDDA (100%)
14 -=- 14 - That's Right.wav -=- CDDA (100%)
15 -=- 15 - Honey Honey.wav -=- CDDA (100%)
16 -=- 16 - Whole Lotta Shakin' Goin' On.wav -=- CDDA (99%)
17 -=- 17 - There's A Goldmine In The Sky.wav -=- CDDA (100%)
18 -=- 18 - Not Too Old To Rock And Roll.wav -=- CDDA (100%)
19 -=- 19 - Slow Train To Nowhere.wav -=- CDDA (99%)
20 -=- 20 - I'm Confessin'.wav -=- CDDA (99%)
21 -=- 21 - Itchy Twitchy Feelin'.wav -=- CDDA (100%)

Summary 99,76% CDDA

239028068



Thanks to DJGarrik!