Subcategories

Def Leppard - Singles Collection (9x CDS, 1988-1996) RE-UPPED

Posted By: Shar'EmAll
Def Leppard - Singles Collection (9x CDS, 1988-1996) RE-UPPED

Def Leppard - Singles Collection (9x CDS, 1988-1996)
EAC Rips | 9x FLAC+CUE+LOG | Full Scans | > 1,3 GB
Rock / Hard Rock / Pop Metal | TT - 156:10 minutes | Labels & Cat. # available

A collection of some Def Leppard's singles from the 1988-1996 period, most for the Adrenalize album. Includes Pour Some Sugar On Me, Have You Ever Needed Someone So Bad, Let's Get Rocked, Make Love Like A Man, Heaven Is, Action, When Love And Hate Collide, and Slang.


In many ways, Def Leppard were the definitive hard rock band of the '80s. There were many bands that rocked harder (and were more dangerous) than the Sheffield-based quintet, but few others captured the spirit of the times quite as well. Emerging in the late '70s as part of the New Wave of British Heavy Metal, Def Leppard actually owed more to the glam rock and metal of the early '70s, as their sound was equal parts T. Rex, Mott the Hoople, Queen, and Led Zeppelin.


Def Leppard - Singles Collection (9x CDS, 1988-1996) RE-UPPED

Def Leppard - Pour Some Sugar On Me (CDS 1988)
FLAC+CUE+LOG | 20:47 minutes | Full Scans | 161 MB


Tracklist:

01. Pour Some Sugar On Me (Single Version)
02. Rocket (The Lunar Mix)
03. Rock Of Ages (Live)

Label: Phonogram Inc.
Catalog Number: 892 595-2

Exact Audio Copy V1.0 beta 1 from 15. November 2010

EAC extraction logfile from 13. July 2011, 18:18

Def Leppard / Pour Some Sugar On Me

Used drive : Optiarc DVD RW AD-7203S Adapter: 3 ID: 0

Read mode : Secure
Utilize accurate stream : Yes
Defeat audio cache : Yes
Make use of C2 pointers : No

Read offset correction : 48
Overread into Lead-In and Lead-Out : No
Fill up missing offset samples with silence : Yes
Delete leading and trailing silent blocks : No
Null samples used in CRC calculations : Yes
Used interface : Native Win32 interface for Win NT & 2000

Used output format : User Defined Encoder
Selected bitrate : 32 kBit/s
Quality : High
Add ID3 tag : No
Command line compressor : C:\Program Files\Exact Audio Copy\Flac\flac.exe
Additional command line options : -6 -V %s


TOC of the extracted CD

Track | Start | Length | Start sector | End sector
––––––––––––––––––––––––––––-
1 | 0:00.33 | 4:24.00 | 33 | 19832
2 | 4:24.33 | 7:08.00 | 19833 | 51932
3 | 11:32.33 | 9:15.05 | 51933 | 93562


Range status and errors

Selected range

Filename C:\Uploads\Def Leppard - Pour Some Sugar On Me\Def Leppard - Pour Some Sugar On Me.wav

Peak level 99.9 %
Extraction speed 1.4 X
Range quality 100.0 %
Test CRC B5630B0D
Copy CRC B5630B0D
Copy OK

No errors occurred


AccurateRip summary

Track 1 accurately ripped (confidence 9) [3C639126]
Track 2 accurately ripped (confidence 10) [9DBF34EE]
Track 3 accurately ripped (confidence 6) [7E2A66DA]

All tracks accurately ripped

End of status report


_________________________________________________________________________________________


Def Leppard - Singles Collection (9x CDS, 1988-1996) RE-UPPED

Def Leppard - Have You Ever Needed Someone So Bad (CDS 1992)
FLAC+CUE+LOG | 20:57 minutes | Full Scans | 156 MB


Tracklist:

1. Have You Ever Needed Someone So Bad
2. From The Inside
3. You Can't Always Get What You Want
4. Little Wing

Label: Phonogram Inc.
Catalog Number: 864 151-2

Exact Audio Copy V1.0 beta 1 from 15. November 2010

EAC extraction logfile from 13. July 2011, 20:49

Def Leppard / Have You Ever Needed Someone So Bad

Used drive : Optiarc DVD RW AD-7203S Adapter: 3 ID: 0

Read mode : Secure
Utilize accurate stream : Yes
Defeat audio cache : Yes
Make use of C2 pointers : No

Read offset correction : 48
Overread into Lead-In and Lead-Out : No
Fill up missing offset samples with silence : Yes
Delete leading and trailing silent blocks : No
Null samples used in CRC calculations : Yes
Used interface : Native Win32 interface for Win NT & 2000

Used output format : User Defined Encoder
Selected bitrate : 32 kBit/s
Quality : High
Add ID3 tag : No
Command line compressor : C:\Program Files\Exact Audio Copy\Flac\flac.exe
Additional command line options : -6 -V %s


TOC of the extracted CD

Track | Start | Length | Start sector | End sector
––––––––––––––––––––––––––––-
1 | 0:00.33 | 5:27.65 | 33 | 24622
2 | 5:28.23 | 4:14.35 | 24623 | 43707
3 | 9:42.58 | 7:33.30 | 43708 | 77712
4 | 17:16.13 | 3:41.45 | 77713 | 94332


Range status and errors

Selected range

Filename C:\Uploads\Def Leppard - Heave You Ever Needed Someone So Bad\Def Leppard - Have You Ever Needed Someone So Bad.wav

Peak level 100.0 %
Extraction speed 0.5 X
Range quality 100.0 %
Test CRC 02B8AB63
Copy CRC 02B8AB63
Copy OK

No errors occurred


AccurateRip summary

Track 1 accurately ripped (confidence 2) [8AD3B415]
Track 2 accurately ripped (confidence 2) [0130CE42]
Track 3 accurately ripped (confidence 2) [3BE36BD0]
Track 4 accurately ripped (confidence 2) [D0183D39]

All tracks accurately ripped

End of status report


_________________________________________________________________________________________


Def Leppard - Singles Collection (9x CDS, 1988-1996) RE-UPPED

Def Leppard - Let's Get Rocked (CDS 1992)
FLAC+CUE+LOG | 15:32 minutes | Full Scans | 131 MB


Tracklist:

01. Let's Get Rocked
02. Only After Dark
03. Women (Live)

Label: Phonogram Inc.
Catalog Number: 866 591-2

Exact Audio Copy V1.0 beta 1 from 15. November 2010

EAC extraction logfile from 14. July 2011, 0:18

Def Leppard / Let's Get Rocked

Used drive : Optiarc DVD RW AD-7203S Adapter: 3 ID: 0

Read mode : Secure
Utilize accurate stream : Yes
Defeat audio cache : Yes
Make use of C2 pointers : No

Read offset correction : 48
Overread into Lead-In and Lead-Out : No
Fill up missing offset samples with silence : Yes
Delete leading and trailing silent blocks : No
Null samples used in CRC calculations : Yes
Used interface : Native Win32 interface for Win NT & 2000

Used output format : User Defined Encoder
Selected bitrate : 32 kBit/s
Quality : High
Add ID3 tag : No
Command line compressor : C:\Program Files\Exact Audio Copy\Flac\flac.exe
Additional command line options : -6 -V %s


TOC of the extracted CD

Track | Start | Length | Start sector | End sector
––––––––––––––––––––––––––––-
1 | 0:00.33 | 4:56.72 | 33 | 22304
2 | 4:57.30 | 4:02.35 | 22305 | 40489
3 | 8:59.65 | 6:32.43 | 40490 | 69932


Range status and errors

Selected range

Filename C:\Uploads\Def Leppard - Let's Get Rocked\Def Leppard - Let's Get Rocked.wav

Peak level 97.3 %
Extraction speed 1.2 X
Range quality 99.9 %
Test CRC F787A412
Copy CRC F787A412
Copy OK

No errors occurred


AccurateRip summary

Track 1 accurately ripped (confidence 10) [91ADF861]
Track 2 accurately ripped (confidence 11) [7104E8DA]
Track 3 accurately ripped (confidence 11) [65961515]

All tracks accurately ripped

End of status report


_________________________________________________________________________________________


Def Leppard - Singles Collection (9x CDS, 1988-1996) RE-UPPED

Def Leppard - Make Love Like A Man (CDS 1992)
FLAC+CUE+LOG | 17:26 minutes | Full Scans | 142 MB


Tracklist:

01. Make Love Like A Man
02. Miss You In A Heartbeat
03. Action
04. Two Steps Behind (Acoustic Version)

Label: Phonogram Inc.
Catalog Number: 866 993-2

Exact Audio Copy V1.0 beta 1 from 15. November 2010

EAC extraction logfile from 13. July 2011, 19:17

Def Leppard / Make Love Like A Man (Maxi CD)

Used drive : Optiarc DVD RW AD-7203S Adapter: 3 ID: 0

Read mode : Secure
Utilize accurate stream : Yes
Defeat audio cache : Yes
Make use of C2 pointers : No

Read offset correction : 48
Overread into Lead-In and Lead-Out : No
Fill up missing offset samples with silence : Yes
Delete leading and trailing silent blocks : No
Null samples used in CRC calculations : Yes
Used interface : Native Win32 interface for Win NT & 2000

Used output format : User Defined Encoder
Selected bitrate : 32 kBit/s
Quality : High
Add ID3 tag : No
Command line compressor : C:\Program Files\Exact Audio Copy\Flac\flac.exe
Additional command line options : -6 -V %s


TOC of the extracted CD

Track | Start | Length | Start sector | End sector
––––––––––––––––––––––––––––-
1 | 0:00.32 | 4:16.30 | 32 | 19261
2 | 4:16.62 | 5:06.65 | 19262 | 42276
3 | 9:23.52 | 3:51.40 | 42277 | 59641
4 | 13:15.17 | 4:11.38 | 59642 | 78504


Range status and errors

Selected range

Filename C:\Uploads\Def Leppard - Make Love Like A Man\Def Leppard - Make Love Like A Man.wav

Peak level 97.3 %
Extraction speed 0.7 X
Range quality 100.0 %
Test CRC AD464DAA
Copy CRC AD464DAA
Copy OK

No errors occurred


AccurateRip summary

Track 1 accurately ripped (confidence 1) [AE45C234]
Track 2 accurately ripped (confidence 1) [9F4403BD]
Track 3 accurately ripped (confidence 1) [F18F2DF0]
Track 4 accurately ripped (confidence 1) [9E39EE84]

All tracks accurately ripped

End of status report


_________________________________________________________________________________________


Def Leppard - Singles Collection (9x CDS, 1988-1996) RE-UPPED

Def Leppard - Heaven Is (CDS 1993)
FLAC+CUE+LOG | 17:28 minutes | Full Scans | 148 MB


Tracklist:

01. Heaven Is
02. She's Too Tough
03. Elected (Live)
04. Let's Get Rocked

Label: Phonogram Inc.
Catalog Number: 864 731-2

Exact Audio Copy V1.0 beta 1 from 15. November 2010

EAC extraction logfile from 13. July 2011, 23:05

Def Leppard / Heaven Is (Single)

Used drive : Optiarc DVD RW AD-7203S Adapter: 3 ID: 0

Read mode : Secure
Utilize accurate stream : Yes
Defeat audio cache : Yes
Make use of C2 pointers : No

Read offset correction : 48
Overread into Lead-In and Lead-Out : No
Fill up missing offset samples with silence : Yes
Delete leading and trailing silent blocks : No
Null samples used in CRC calculations : Yes
Used interface : Native Win32 interface for Win NT & 2000

Used output format : User Defined Encoder
Selected bitrate : 32 kBit/s
Quality : High
Add ID3 tag : No
Command line compressor : C:\Program Files\Exact Audio Copy\Flac\flac.exe
Additional command line options : -6 -V %s


TOC of the extracted CD

Track | Start | Length | Start sector | End sector
––––––––––––––––––––––––––––-
1 | 0:00.32 | 3:33.43 | 32 | 16049
2 | 3:34.00 | 3:36.32 | 16050 | 32281
3 | 7:10.32 | 4:29.08 | 32282 | 52464
4 | 11:39.40 | 5:48.30 | 52465 | 78594


Range status and errors

Selected range

Filename C:\Uploads\Def Leppard - Heaven Is\Def Leppard - Heaven Is.wav

Peak level 98.0 %
Extraction speed 1.0 X
Range quality 100.0 %
Test CRC 01C070B7
Copy CRC 01C070B7
Copy OK

No errors occurred


AccurateRip summary

Track 1 accurately ripped (confidence 3) [E3B00E15]
Track 2 accurately ripped (confidence 3) [DEDCAD2C]
Track 3 accurately ripped (confidence 3) [DBD84FB5]
Track 4 accurately ripped (confidence 3) [795EF80E]

All tracks accurately ripped

End of status report


_________________________________________________________________________________________


Def Leppard - Singles Collection (9x CDS, 1988-1996) RE-UPPED

Def Leppard - Action (CDS 1994)
FLAC+CUE+LOG | 13:19 minutes | Full Scans | 101 MB


Tracklist:

01. Action
02. She's Too Tough (Joe's Demo)
03. Miss You In A Heartbeat (Phil's Demo)

Label: Phonogram Inc.
Catalog Number: 858 093-2

Thanks to London

Exact Audio Copy V0.99 prebeta 5 from 4. May 2009

EAC extraction logfile from 26. September 2010, 15:35

Def Leppard / Action [Single]

Used drive : DVDRW DRW-6S160P Adapter: 1 ID: 0

Read mode : Secure
Utilize accurate stream : Yes
Defeat audio cache : Yes
Make use of C2 pointers : No

Read offset correction : 6
Overread into Lead-In and Lead-Out : No
Fill up missing offset samples with silence : Yes
Delete leading and trailing silent blocks : No
Null samples used in CRC calculations : Yes
Used interface : Native Win32 interface for Win NT & 2000

Used output format : Monkey's Audio Lossless Encoder
Selected bitrate : High Lossless Compression
Quality : High
Add ID3 tag : No
Command line compressor : C:\Program Files\Monkey's Audio\MAC.exe
Additional command line options : -v


TOC of the extracted CD

Track | Start | Length | Start sector | End sector
––––––––––––––––––––––––––––-
1 | 0:00.00 | 3:41.13 | 0 | 16587
2 | 3:41.13 | 3:41.70 | 16588 | 33232
3 | 7:23.08 | 5:55.55 | 33233 | 59912


Range status and errors

Selected range

Filename C:\Documents and Settings\London\Desktop\Def Leppard - Action [Single].wav

Peak level 98.8 %
Range quality 100.0 %
Test CRC DA521904
Copy CRC DA521904
Copy OK

No errors occurred


AccurateRip summary

Track 1 accurately ripped (confidence 5) [7774257F]
Track 2 accurately ripped (confidence 7) [9054BDF4]
Track 3 accurately ripped (confidence 7) [034A0FCF]

All tracks accurately ripped

End of status report


_________________________________________________________________________________________


Def Leppard - Singles Collection (9x CDS, 1988-1996) RE-UPPED

Def Leppard - When Love And Hate Collide (CDS 1995)
FLAC+CUE+LOG | 17:55 minutes | Full Scans | 149 MB


Tracklist:

01. When Love & Hate Collide
02. Rocket (Remix)
03. Excitable (Remix)

Label: Mercury Record Ltd. (London)
Catalog Number: 852 421-2

Exact Audio Copy V1.0 beta 1 from 15. November 2010

EAC extraction logfile from 13. July 2011, 18:04

Def Leppard / When Love & Hate Collide (Single)

Used drive : Optiarc DVD RW AD-7203S Adapter: 3 ID: 0

Read mode : Secure
Utilize accurate stream : Yes
Defeat audio cache : Yes
Make use of C2 pointers : No

Read offset correction : 48
Overread into Lead-In and Lead-Out : No
Fill up missing offset samples with silence : Yes
Delete leading and trailing silent blocks : No
Null samples used in CRC calculations : Yes
Used interface : Native Win32 interface for Win NT & 2000

Used output format : User Defined Encoder
Selected bitrate : 32 kBit/s
Quality : High
Add ID3 tag : No
Command line compressor : C:\Program Files\Exact Audio Copy\Flac\flac.exe
Additional command line options : -6 -V %s


TOC of the extracted CD

Track | Start | Length | Start sector | End sector
––––––––––––––––––––––––––––-
1 | 0:00.00 | 4:19.12 | 0 | 19436
2 | 4:19.12 | 7:09.38 | 19437 | 51649
3 | 11:28.50 | 6:26.05 | 51650 | 80604


Range status and errors

Selected range

Filename C:\Uploads\Def Leppard - When Love And Hate Collide\Def Leppard - When Love & Hate Collide (Single).wav

Peak level 100.0 %
Extraction speed 1.0 X
Range quality 100.0 %
Test CRC E2B4B58C
Copy CRC E2B4B58C
Copy OK

No errors occurred


AccurateRip summary

Track 1 accurately ripped (confidence 2) [05603FCC]
Track 2 accurately ripped (confidence 2) [AC68006E]
Track 3 accurately ripped (confidence 2) [631EBD74]

All tracks accurately ripped

End of status report


_________________________________________________________________________________________


Def Leppard - Singles Collection (9x CDS, 1988-1996) RE-UPPED

Def Leppard - When Love And Hate Collide (CDS 1995)
FLAC+CUE+LOG | 19:11 minutes | Full Scans | 217 MB


Tracklist:

01.When Love & Hate Collide
02. Rocket (Remix)
03. Armageddon It (Remix)

Label: Mercury Record Ltd. (London)
Catalog Number: 852 403-2

Exact Audio Copy V1.0 beta 1 from 15. November 2010

EAC extraction logfile from 13. July 2011, 18:33

Def Leppard / When Love & Hate Collide

Used drive : Optiarc DVD RW AD-7203S Adapter: 3 ID: 0

Read mode : Secure
Utilize accurate stream : Yes
Defeat audio cache : Yes
Make use of C2 pointers : No

Read offset correction : 48
Overread into Lead-In and Lead-Out : No
Fill up missing offset samples with silence : Yes
Delete leading and trailing silent blocks : No
Null samples used in CRC calculations : Yes
Used interface : Native Win32 interface for Win NT & 2000

Used output format : User Defined Encoder
Selected bitrate : 32 kBit/s
Quality : High
Add ID3 tag : No
Command line compressor : C:\Program Files\Exact Audio Copy\Flac\flac.exe
Additional command line options : -6 -V %s


TOC of the extracted CD

Track | Start | Length | Start sector | End sector
––––––––––––––––––––––––––––-
1 | 0:00.00 | 4:19.12 | 0 | 19436
2 | 4:19.12 | 7:09.38 | 19437 | 51649
3 | 11:28.50 | 7:42.10 | 51650 | 86309


Range status and errors

Selected range

Filename C:\Uploads\Def Leppard - When Love And Hate Collide 2\Def Leppard - When Love & Hate Collide.wav

Peak level 100.0 %
Extraction speed 1.2 X
Range quality 100.0 %
Test CRC 69062060
Copy CRC 69062060
Copy OK

No errors occurred


AccurateRip summary

Track 1 accurately ripped (confidence 3) [4AC36B0E]
Track 2 accurately ripped (confidence 4) [38F0B379]
Track 3 accurately ripped (confidence 3) [DE70BD76]

All tracks accurately ripped

End of status report


_________________________________________________________________________________________


Def Leppard - Singles Collection (9x CDS, 1988-1996) RE-UPPED

Def Leppard - Slang (CDS 1996)
FLAC+CUE+LOG | 13:35 minutes | Full Scans | 129 MB


Tracklist:

01. Slang
02. Animal (Live Acoustic Version)
03. Ziggy Stardust (Live Acoustic Version)
04. Pour Some Sugar On Me (Live Acoustic Version)

Label: Mercury Record Ltd. (London)
Catalog Number: 852 965-2

Exact Audio Copy V1.0 beta 1 from 15. November 2010

EAC extraction logfile from 13. July 2011, 20:01

Def Leppard / Slang

Used drive : Optiarc DVD RW AD-7203S Adapter: 3 ID: 0

Read mode : Secure
Utilize accurate stream : Yes
Defeat audio cache : Yes
Make use of C2 pointers : No

Read offset correction : 48
Overread into Lead-In and Lead-Out : No
Fill up missing offset samples with silence : Yes
Delete leading and trailing silent blocks : No
Null samples used in CRC calculations : Yes
Used interface : Native Win32 interface for Win NT & 2000

Used output format : User Defined Encoder
Selected bitrate : 32 kBit/s
Quality : High
Add ID3 tag : No
Command line compressor : C:\Program Files\Exact Audio Copy\Flac\flac.exe
Additional command line options : -6 -V %s


TOC of the extracted CD

Track | Start | Length | Start sector | End sector
––––––––––––––––––––––––––––-
1 | 0:00.00 | 2:40.52 | 0 | 12051
2 | 2:40.52 | 3:46.35 | 12052 | 29036
3 | 6:27.12 | 3:08.40 | 29037 | 43176
4 | 9:35.52 | 3:59.55 | 43177 | 61156


Range status and errors

Selected range

Filename C:\Uploads\Def Leppard - Slang\Def Leppard - Slang.wav

Peak level 99.9 %
Extraction speed 0.8 X
Range quality 100.0 %
Test CRC 10A68022
Copy CRC 10A68022
Copy OK

No errors occurred


AccurateRip summary

Track 1 cannot be verified as accurate (confidence 8) [7E993AEE], AccurateRip returned [780146BC]
Track 2 cannot be verified as accurate (confidence 12) [726109FC], AccurateRip returned [7A868BB8]
Track 3 cannot be verified as accurate (confidence 12) [42BA7BCE], AccurateRip returned [6DC3F866]
Track 4 cannot be verified as accurate (confidence 10) [129F5BB1], AccurateRip returned [4C4AB1EF]

No tracks could be verified as accurate
You may have a different pressing from the one(s) in the database

End of status report


Thanks to subrr!
>

>