Subcategories
Tags
Language
Tags

Delegation - The Promise Of Love (40th Anniversary Edition) (1977/2017)

Posted By: delpotro
Delegation - The Promise Of Love (40th Anniversary Edition) (1977/2017)

Delegation - The Promise Of Love (40th Anniversary Edition) (1977/2017)
EAC Rip | FLAC (tracks+log+.cue) - 479 Mb | MP3 CBR 320 kbps - 185 Mb | Covers included | 01:12:11
R'n'B, Funk, Disco | Label: Big Break Records, Cherry Red Records

Big Break Records is proud to present Delegation’s The Promise Of Love. Featuring the alternative tracks chosen for the US release and all the non-album single sides from that period, as well as comprehensive liner notes from Christian John Wikane incorporating new interviews with Bailey and Gold, this is essential listening for all Soul, Disco and Pop fans.

UK R&B/Soul group DELEGATION released their debut LP The Promise of Love in 1977 on State Records, two years in to a recording and performing career that continues to this day. This reissue completes BBR’s remaster series of the group’s first four LP’s. The Promise Of Love features the original line- up of Ricky Bailey, Len Coley and Roddy Harris and was produced by Ken Gold who, along with Mick Denne wrote the majority of the songs, fresh from their breakthrough success with The Real Thing’s “You To Me Are Everything.” Gold was instrumental in championing DELEGATION and secured the deal with State. With an alternative version issued for the US market, this release sees the original UK album making its CD debut with bonus tracks from the US release as well as their early non-album singles issued on State.

The first single from The Promise Of Love, released in ‘76 was the album’s opener and title track, backed with the non-album track ‘It Only Happens’ – previously recorded by Aretha Franklin and Jackie Wilson. However, despite critical acclaim the single peaked outside the Top 50. Gold and Denne’s smooth soul/pop sound, allied with lead singer Ricky Bailey’s rich and soulful interpretations took their next two singles in to the UK top fifty with ‘Where Is The Love (We Used to Know)’ (#22) and ‘You’ve Been Doing Me Wrong’ (#49).

Having secured a deal with Shadybrook Records for the US the mid-tempo, soulful love ballad ‘Oh, Honey’ became an unexpected crossover hit (R&B #6, Pop #45). This prompted the release of the US version of The Promise Of Love to include ‘Oh, Honey’ as well as the exceptional, spacious ballad ‘Mr Heartbreak’, ‘Let Me Take You to The Sun’ and ‘Love Is Like a Fire’. Subsequent US single ‘Someone Oughta Write a Song (About You Baby)’ hit #45 on the R&B chart.

Big Break Records is proud to present Delegation’s The Promise Of Love. Featuring the alternative tracks chosen for the US release and all the non-album single sides from that period, as well as comprehensive liner notes from Christian John Wikane incorporating new interviews with Bailey and Gold, this is essential listening for all Soul, Disco and Pop fans.
Tracklist:
1. The Promise Of Love (03:37)
2. You've Been Doing Me Wrong (03:46)
3. We Can Make It (04:43)
4. Heaven Is By Your Side (03:55)
5. Back Door Love (02:50)
6. Where Is The Love (We Used To Know) (03:59)
7. Soul Trippin' (03:57)
8. You And Your Love (04:04)
9. Someone Oughta Write A Song (About You Baby) (05:42)
10. Steppin' Out Of Line (03:02)
11. Oh Honey (04:15)
12. Mr. Heartbreak (04:19)
13. Let Me Take You To The Sun (04:04)
14. Love Is Like A Fire (03:17)
15. Honey I'm Rich (03:32)
16. Baby You're My Mystery (03:29)
17. It Only Happens (When I Look At You) (03:41)
18. Oh Honey (12" Version) (05:58)

Exact Audio Copy V1.3 from 2. September 2016

EAC extraction logfile from 19. September 2018, 19:34

Delegation / The Promise Of Love

Used drive : PLEXTOR PX-891SAF Adapter: 1 ID: 0

Read mode : Secure
Utilize accurate stream : Yes
Defeat audio cache : Yes
Make use of C2 pointers : No

Read offset correction : 6
Overread into Lead-In and Lead-Out : No
Fill up missing offset samples with silence : Yes
Delete leading and trailing silent blocks : No
Null samples used in CRC calculations : Yes
Used interface : Native Win32 interface for Win NT & 2000
Gap handling : Appended to previous track

Used output format : User Defined Encoder
Selected bitrate : 1024 kBit/s
Quality : High
Add ID3 tag : No
Command line compressor : C:\Program Files (x86)\Exact Audio Copy\Flac\flac.exe
Additional command line options : -8 -V -T "ARTIST=%artist%" -T "TITLE=%title%" -T "ALBUM=%albumtitle%" -T "DATE=%year%" -T "TRACKNUMBER=%tracknr%" -T "GENRE=%genre%" -T "PERFORMER=%albuminterpret%" -T "COMPOSER=%composer%" %haslyrics%–tag-from-file=LYRICS="%lyricsfile%"%haslyrics% -T "ALBUMARTIST=%albumartist%" -T "DISCNUMBER=%cdnumber%" -T "TOTALDISCS=%totalcds%" -T "TOTALTRACKS=%numtracks%" -T "COMMENT=%comment%" %source% -o %dest%


TOC of the extracted CD

Track | Start | Length | Start sector | End sector
––––––––––––––––––––––––––––-
1 | 0:00.00 | 3:37.18 | 0 | 16292
2 | 3:37.18 | 3:45.48 | 16293 | 33215
3 | 7:22.66 | 4:43.13 | 33216 | 54453
4 | 12:06.04 | 3:55.09 | 54454 | 72087
5 | 16:01.13 | 2:50.08 | 72088 | 84845
6 | 18:51.21 | 3:58.70 | 84846 | 102765
7 | 22:50.16 | 3:56.45 | 102766 | 120510
8 | 26:46.61 | 4:03.45 | 120511 | 138780
9 | 30:50.31 | 5:42.14 | 138781 | 164444
10 | 36:32.45 | 3:02.28 | 164445 | 178122
11 | 39:34.73 | 4:14.50 | 178123 | 197222
12 | 43:49.48 | 4:19.17 | 197223 | 216664
13 | 48:08.65 | 4:04.24 | 216665 | 234988
14 | 52:13.14 | 3:17.22 | 234989 | 249785
15 | 55:30.36 | 3:32.22 | 249786 | 265707
16 | 59:02.58 | 3:29.29 | 265708 | 281411
17 | 62:32.12 | 3:40.44 | 281412 | 297955
18 | 66:12.56 | 5:58.20 | 297956 | 324825


Track 1

Filename D:\Rotterdam 2018 II\Delegation - The Promise Of Love\01. Delegation - The Promise Of Love.wav

Pre-gap length 0:00:02.00

Peak level 95.5 %
Extraction speed 5.6 X
Track quality 100.0 %
Test CRC F08891AF
Copy CRC F08891AF
Accurately ripped (confidence 2) [B25F2699] (AR v2)
Copy OK

Track 2

Filename D:\Rotterdam 2018 II\Delegation - The Promise Of Love\02. Delegation - You've Been Doing Me Wrong.wav

Pre-gap length 0:00:01.52

Peak level 95.5 %
Extraction speed 6.1 X
Track quality 100.0 %
Test CRC 2D7DA912
Copy CRC 2D7DA912
Accurately ripped (confidence 2) [05FCB7B3] (AR v2)
Copy OK

Track 3

Filename D:\Rotterdam 2018 II\Delegation - The Promise Of Love\03. Delegation - We Can Make It.wav

Pre-gap length 0:00:01.69

Peak level 95.5 %
Extraction speed 5.8 X
Track quality 99.9 %
Test CRC EBB888CE
Copy CRC EBB888CE
Accurately ripped (confidence 2) [67697EB0] (AR v2)
Copy OK

Track 4

Filename D:\Rotterdam 2018 II\Delegation - The Promise Of Love\04. Delegation - Heaven Is By Your Side.wav

Pre-gap length 0:00:01.62

Peak level 95.5 %
Extraction speed 7.1 X
Track quality 100.0 %
Test CRC 8C6C0A2D
Copy CRC 8C6C0A2D
Accurately ripped (confidence 2) [87E7237E] (AR v2)
Copy OK

Track 5

Filename D:\Rotterdam 2018 II\Delegation - The Promise Of Love\05. Delegation - Back Door Love.wav

Pre-gap length 0:00:01.06

Peak level 95.5 %
Extraction speed 7.2 X
Track quality 100.0 %
Test CRC 5D0FB514
Copy CRC 5D0FB514
Accurately ripped (confidence 2) [9A7C2E4F] (AR v2)
Copy OK

Track 6

Filename D:\Rotterdam 2018 II\Delegation - The Promise Of Love\06. Delegation - Where Is The Love (We Used To Know).wav

Pre-gap length 0:00:01.09

Peak level 95.5 %
Extraction speed 7.9 X
Track quality 100.0 %
Test CRC 0A8DB6BD
Copy CRC 0A8DB6BD
Accurately ripped (confidence 2) [FC4FDC25] (AR v2)
Copy OK

Track 7

Filename D:\Rotterdam 2018 II\Delegation - The Promise Of Love\07. Delegation - Soul Trippin'.wav

Pre-gap length 0:00:01.80

Peak level 95.5 %
Extraction speed 8.1 X
Track quality 100.0 %
Test CRC 060EF105
Copy CRC 060EF105
Accurately ripped (confidence 2) [B31A4CFD] (AR v2)
Copy OK

Track 8

Filename D:\Rotterdam 2018 II\Delegation - The Promise Of Love\08. Delegation - You And Your Love.wav

Pre-gap length 0:00:02.18

Peak level 95.5 %
Extraction speed 8.5 X
Track quality 100.0 %
Test CRC AA613FAC
Copy CRC AA613FAC
Accurately ripped (confidence 2) [88C5C48D] (AR v2)
Copy OK

Track 9

Filename D:\Rotterdam 2018 II\Delegation - The Promise Of Love\09. Delegation - Someone Oughta Write A Song (About You Baby).wav

Pre-gap length 0:00:01.53

Peak level 95.5 %
Extraction speed 9.3 X
Track quality 100.0 %
Test CRC 26970861
Copy CRC 26970861
Accurately ripped (confidence 2) [72CC536F] (AR v2)
Copy OK

Track 10

Filename D:\Rotterdam 2018 II\Delegation - The Promise Of Love\10. Delegation - Steppin' Out Of Line.wav

Pre-gap length 0:00:02.18

Peak level 95.5 %
Extraction speed 8.9 X
Track quality 100.0 %
Test CRC B5C45A74
Copy CRC B5C45A74
Accurately ripped (confidence 2) [DD0C2295] (AR v2)
Copy OK

Track 11

Filename D:\Rotterdam 2018 II\Delegation - The Promise Of Love\11. Delegation - Oh Honey.wav

Pre-gap length 0:00:02.88

Peak level 95.4 %
Extraction speed 9.5 X
Track quality 100.0 %
Test CRC FE9339FA
Copy CRC FE9339FA
Accurately ripped (confidence 2) [6E7D7646] (AR v2)
Copy OK

Track 12

Filename D:\Rotterdam 2018 II\Delegation - The Promise Of Love\12. Delegation - Mr Heartbreak.wav

Pre-gap length 0:00:01.44

Peak level 95.3 %
Extraction speed 9.9 X
Track quality 100.0 %
Test CRC AAD30512
Copy CRC AAD30512
Accurately ripped (confidence 1) [00D0EFE2] (AR v2)
Copy OK

Track 13

Filename D:\Rotterdam 2018 II\Delegation - The Promise Of Love\13. Delegation - Let Me Take You To The Sun.wav

Pre-gap length 0:00:02.26

Peak level 95.4 %
Extraction speed 8.5 X
Track quality 99.9 %
Test CRC B2588506
Copy CRC B2588506
Accurately ripped (confidence 1) [CAF17770] (AR v2)
Copy OK

Track 14

Filename D:\Rotterdam 2018 II\Delegation - The Promise Of Love\14. Delegation - Love Is Like A Fire.wav

Pre-gap length 0:00:01.30

Peak level 95.4 %
Extraction speed 10.0 X
Track quality 100.0 %
Test CRC B0B18613
Copy CRC B0B18613
Accurately ripped (confidence 1) [A6F9B27E] (AR v2)
Copy OK

Track 15

Filename D:\Rotterdam 2018 II\Delegation - The Promise Of Love\15. Delegation - Honey, I'm Rich.wav

Pre-gap length 0:00:02.05

Peak level 95.4 %
Extraction speed 10.3 X
Track quality 100.0 %
Test CRC D37391E4
Copy CRC D37391E4
Accurately ripped (confidence 1) [5D9C1D57] (AR v2)
Copy OK

Track 16

Filename D:\Rotterdam 2018 II\Delegation - The Promise Of Love\16. Delegation - Baby You're My Mystery.wav

Pre-gap length 0:00:01.24

Peak level 95.4 %
Extraction speed 10.7 X
Track quality 100.0 %
Test CRC EAF4D041
Copy CRC EAF4D041
Accurately ripped (confidence 1) [59D2A12F] (AR v2)
Copy OK

Track 17

Filename D:\Rotterdam 2018 II\Delegation - The Promise Of Love\17. Delegation - It Only Happens (When I Look At You).wav

Pre-gap length 0:00:01.80

Peak level 95.4 %
Extraction speed 10.9 X
Track quality 100.0 %
Test CRC 9995E18E
Copy CRC 9995E18E
Accurately ripped (confidence 1) [9E61FA8F] (AR v2)
Copy OK

Track 18

Filename D:\Rotterdam 2018 II\Delegation - The Promise Of Love\18. Delegation - Oh Honey (12'' Version).wav

Pre-gap length 0:00:01.05

Peak level 95.4 %
Extraction speed 10.1 X
Track quality 99.9 %
Test CRC B8144C74
Copy CRC B8144C74
Accurately ripped (confidence 1) [678AD1BA] (AR v2)
Copy OK


All tracks accurately ripped

No errors occurred

End of status report

–– CUETools DB Plugin V2.1.6

[CTDB TOCID: OWjKmwYYroSzJrBmhx7Q8gv1G4Q-] found
Submit result: OWjKmwYYroSzJrBmhx7Q8gv1G4Q- has been confirmed
Track | CTDB Status
1 | (3/3) Accurately ripped
2 | (3/3) Accurately ripped
3 | (3/3) Accurately ripped
4 | (3/3) Accurately ripped
5 | (3/3) Accurately ripped
6 | (3/3) Accurately ripped
7 | (3/3) Accurately ripped
8 | (3/3) Accurately ripped
9 | (3/3) Accurately ripped
10 | (3/3) Accurately ripped
11 | (3/3) Accurately ripped
12 | (3/3) Accurately ripped
13 | (3/3) Accurately ripped
14 | (3/3) Accurately ripped
15 | (3/3) Accurately ripped
16 | (3/3) Accurately ripped
17 | (3/3) Accurately ripped
18 | (3/3) Accurately ripped


==== Log checksum 0FD23BDF8CAEABAC2C396F6AFC904F0A608C0D0BF20C74AE1F49F272AD58E9D5 ====

––––––––––––––––––––––––––––––

Exact Audio Copy V1.3 from 2. September 2016

EAC extraction logfile from 19. September 2018, 19:34

Delegation / The Promise Of Love

Used drive : PLEXTOR PX-891SAF Adapter: 1 ID: 0

Read mode : Secure
Utilize accurate stream : Yes
Defeat audio cache : Yes
Make use of C2 pointers : No

Read offset correction : 6
Overread into Lead-In and Lead-Out : No
Fill up missing offset samples with silence : Yes
Delete leading and trailing silent blocks : No
Null samples used in CRC calculations : Yes
Used interface : Native Win32 interface for Win NT & 2000
Gap handling : Appended to previous track

Used output format : User Defined Encoder
Selected bitrate : 1024 kBit/s
Quality : High
Add ID3 tag : No
Command line compressor : C:\Program Files (x86)\Exact Audio Copy\Flac\flac.exe
Additional command line options : -8 -V -T "ARTIST=%artist%" -T "TITLE=%title%" -T "ALBUM=%albumtitle%" -T "DATE=%year%" -T "TRACKNUMBER=%tracknr%" -T "GENRE=%genre%" -T "PERFORMER=%albuminterpret%" -T "COMPOSER=%composer%" %haslyrics%–tag-from-file=LYRICS="%lyricsfile%"%haslyrics% -T "ALBUMARTIST=%albumartist%" -T "DISCNUMBER=%cdnumber%" -T "TOTALDISCS=%totalcds%" -T "TOTALTRACKS=%numtracks%" -T "COMMENT=%comment%" %source% -o %dest%


TOC of the extracted CD

Track | Start | Length | Start sector | End sector
––––––––––––––––––––––––––––-
1 | 0:00.00 | 3:37.18 | 0 | 16292
2 | 3:37.18 | 3:45.48 | 16293 | 33215
3 | 7:22.66 | 4:43.13 | 33216 | 54453
4 | 12:06.04 | 3:55.09 | 54454 | 72087
5 | 16:01.13 | 2:50.08 | 72088 | 84845
6 | 18:51.21 | 3:58.70 | 84846 | 102765
7 | 22:50.16 | 3:56.45 | 102766 | 120510
8 | 26:46.61 | 4:03.45 | 120511 | 138780
9 | 30:50.31 | 5:42.14 | 138781 | 164444
10 | 36:32.45 | 3:02.28 | 164445 | 178122
11 | 39:34.73 | 4:14.50 | 178123 | 197222
12 | 43:49.48 | 4:19.17 | 197223 | 216664
13 | 48:08.65 | 4:04.24 | 216665 | 234988
14 | 52:13.14 | 3:17.22 | 234989 | 249785
15 | 55:30.36 | 3:32.22 | 249786 | 265707
16 | 59:02.58 | 3:29.29 | 265708 | 281411
17 | 62:32.12 | 3:40.44 | 281412 | 297955
18 | 66:12.56 | 5:58.20 | 297956 | 324825


Track 1

Filename D:\Rotterdam 2018 II\Delegation - The Promise Of Love\01. Delegation - The Promise Of Love.wav

Pre-gap length 0:00:02.00

Peak level 95.5 %
Extraction speed 5.6 X
Track quality 100.0 %
Test CRC F08891AF
Copy CRC F08891AF
Accurately ripped (confidence 2) [B25F2699] (AR v2)
Copy OK

Track 2

Filename D:\Rotterdam 2018 II\Delegation - The Promise Of Love\02. Delegation - You've Been Doing Me Wrong.wav

Pre-gap length 0:00:01.52

Peak level 95.5 %
Extraction speed 6.1 X
Track quality 100.0 %
Test CRC 2D7DA912
Copy CRC 2D7DA912
Accurately ripped (confidence 2) [05FCB7B3] (AR v2)
Copy OK

Track 3

Filename D:\Rotterdam 2018 II\Delegation - The Promise Of Love\03. Delegation - We Can Make It.wav

Pre-gap length 0:00:01.69

Peak level 95.5 %
Extraction speed 5.8 X
Track quality 99.9 %
Test CRC EBB888CE
Copy CRC EBB888CE
Accurately ripped (confidence 2) [67697EB0] (AR v2)
Copy OK

Track 4

Filename D:\Rotterdam 2018 II\Delegation - The Promise Of Love\04. Delegation - Heaven Is By Your Side.wav

Pre-gap length 0:00:01.62

Peak level 95.5 %
Extraction speed 7.1 X
Track quality 100.0 %
Test CRC 8C6C0A2D
Copy CRC 8C6C0A2D
Accurately ripped (confidence 2) [87E7237E] (AR v2)
Copy OK

Track 5

Filename D:\Rotterdam 2018 II\Delegation - The Promise Of Love\05. Delegation - Back Door Love.wav

Pre-gap length 0:00:01.06

Peak level 95.5 %
Extraction speed 7.2 X
Track quality 100.0 %
Test CRC 5D0FB514
Copy CRC 5D0FB514
Accurately ripped (confidence 2) [9A7C2E4F] (AR v2)
Copy OK

Track 6

Filename D:\Rotterdam 2018 II\Delegation - The Promise Of Love\06. Delegation - Where Is The Love (We Used To Know).wav

Pre-gap length 0:00:01.09

Peak level 95.5 %
Extraction speed 7.9 X
Track quality 100.0 %
Test CRC 0A8DB6BD
Copy CRC 0A8DB6BD
Accurately ripped (confidence 2) [FC4FDC25] (AR v2)
Copy OK

Track 7

Filename D:\Rotterdam 2018 II\Delegation - The Promise Of Love\07. Delegation - Soul Trippin'.wav

Pre-gap length 0:00:01.80

Peak level 95.5 %
Extraction speed 8.1 X
Track quality 100.0 %
Test CRC 060EF105
Copy CRC 060EF105
Accurately ripped (confidence 2) [B31A4CFD] (AR v2)
Copy OK

Track 8

Filename D:\Rotterdam 2018 II\Delegation - The Promise Of Love\08. Delegation - You And Your Love.wav

Pre-gap length 0:00:02.18

Peak level 95.5 %
Extraction speed 8.5 X
Track quality 100.0 %
Test CRC AA613FAC
Copy CRC AA613FAC
Accurately ripped (confidence 2) [88C5C48D] (AR v2)
Copy OK

Track 9

Filename D:\Rotterdam 2018 II\Delegation - The Promise Of Love\09. Delegation - Someone Oughta Write A Song (About You Baby).wav

Pre-gap length 0:00:01.53

Peak level 95.5 %
Extraction speed 9.3 X
Track quality 100.0 %
Test CRC 26970861
Copy CRC 26970861
Accurately ripped (confidence 2) [72CC536F] (AR v2)
Copy OK

Track 10

Filename D:\Rotterdam 2018 II\Delegation - The Promise Of Love\10. Delegation - Steppin' Out Of Line.wav

Pre-gap length 0:00:02.18

Peak level 95.5 %
Extraction speed 8.9 X
Track quality 100.0 %
Test CRC B5C45A74
Copy CRC B5C45A74
Accurately ripped (confidence 2) [DD0C2295] (AR v2)
Copy OK

Track 11

Filename D:\Rotterdam 2018 II\Delegation - The Promise Of Love\11. Delegation - Oh Honey.wav

Pre-gap length 0:00:02.88

Peak level 95.4 %
Extraction speed 9.5 X
Track quality 100.0 %
Test CRC FE9339FA
Copy CRC FE9339FA
Accurately ripped (confidence 2) [6E7D7646] (AR v2)
Copy OK

Track 12

Filename D:\Rotterdam 2018 II\Delegation - The Promise Of Love\12. Delegation - Mr Heartbreak.wav

Pre-gap length 0:00:01.44

Peak level 95.3 %
Extraction speed 9.9 X
Track quality 100.0 %
Test CRC AAD30512
Copy CRC AAD30512
Accurately ripped (confidence 1) [00D0EFE2] (AR v2)
Copy OK

Track 13

Filename D:\Rotterdam 2018 II\Delegation - The Promise Of Love\13. Delegation - Let Me Take You To The Sun.wav

Pre-gap length 0:00:02.26

Peak level 95.4 %
Extraction speed 8.5 X
Track quality 99.9 %
Test CRC B2588506
Copy CRC B2588506
Accurately ripped (confidence 1) [CAF17770] (AR v2)
Copy OK

Track 14

Filename D:\Rotterdam 2018 II\Delegation - The Promise Of Love\14. Delegation - Love Is Like A Fire.wav

Pre-gap length 0:00:01.30

Peak level 95.4 %
Extraction speed 10.0 X
Track quality 100.0 %
Test CRC B0B18613
Copy CRC B0B18613
Accurately ripped (confidence 1) [A6F9B27E] (AR v2)
Copy OK

Track 15

Filename D:\Rotterdam 2018 II\Delegation - The Promise Of Love\15. Delegation - Honey, I'm Rich.wav

Pre-gap length 0:00:02.05

Peak level 95.4 %
Extraction speed 10.3 X
Track quality 100.0 %
Test CRC D37391E4
Copy CRC D37391E4
Accurately ripped (confidence 1) [5D9C1D57] (AR v2)
Copy OK

Track 16

Filename D:\Rotterdam 2018 II\Delegation - The Promise Of Love\16. Delegation - Baby You're My Mystery.wav

Pre-gap length 0:00:01.24

Peak level 95.4 %
Extraction speed 10.7 X
Track quality 100.0 %
Test CRC EAF4D041
Copy CRC EAF4D041
Accurately ripped (confidence 1) [59D2A12F] (AR v2)
Copy OK

Track 17

Filename D:\Rotterdam 2018 II\Delegation - The Promise Of Love\17. Delegation - It Only Happens (When I Look At You).wav

Pre-gap length 0:00:01.80

Peak level 95.4 %
Extraction speed 10.9 X
Track quality 100.0 %
Test CRC 9995E18E
Copy CRC 9995E18E
Accurately ripped (confidence 1) [9E61FA8F] (AR v2)
Copy OK

Track 18

Filename D:\Rotterdam 2018 II\Delegation - The Promise Of Love\18. Delegation - Oh Honey (12'' Version).wav

Pre-gap length 0:00:01.05

Peak level 95.4 %
Extraction speed 10.1 X
Track quality 99.9 %
Test CRC B8144C74
Copy CRC B8144C74
Accurately ripped (confidence 1) [678AD1BA] (AR v2)
Copy OK


All tracks accurately ripped

No errors occurred

End of status report

–– CUETools DB Plugin V2.1.6

[CTDB TOCID: OWjKmwYYroSzJrBmhx7Q8gv1G4Q-] found
Submit result: OWjKmwYYroSzJrBmhx7Q8gv1G4Q- has been confirmed
Track | CTDB Status
1 | (3/3) Accurately ripped
2 | (3/3) Accurately ripped
3 | (3/3) Accurately ripped
4 | (3/3) Accurately ripped
5 | (3/3) Accurately ripped
6 | (3/3) Accurately ripped
7 | (3/3) Accurately ripped
8 | (3/3) Accurately ripped
9 | (3/3) Accurately ripped
10 | (3/3) Accurately ripped
11 | (3/3) Accurately ripped
12 | (3/3) Accurately ripped
13 | (3/3) Accurately ripped
14 | (3/3) Accurately ripped
15 | (3/3) Accurately ripped
16 | (3/3) Accurately ripped
17 | (3/3) Accurately ripped
18 | (3/3) Accurately ripped


==== Log checksum 0FD23BDF8CAEABAC2C396F6AFC904F0A608C0D0BF20C74AE1F49F272AD58E9D5 ====

Thanks to the Original ripper !