Subcategories

Denes Varjon - Precipitando (2012) {ECM New Series 2247}

Posted By: ruskaval
Denes Varjon - Precipitando (2012) {ECM New Series 2247}

Dénes Várjon - Precipitando (2012) {ECM New Series 2247}
EAC rip (secure mode) | FLAC (tracks)+CUE+LOG -> 165 Mb | MP3 @320 -> 135 Mb
Full Artwork @ 600 dpi (jpg) -> 43 Mb | 5% repair rar
© 2012 ECM Records | ECM New Series 2247
Classical / Solo Piano

After important contributions to Heinz Holliger’s “Romancendres” and acclaimed performance, with Carolin Widmann, of Schumann’s Violin Sonatas, here is the first New Series solo recording from Hungarian pianist Dénes Várjon. It is a recital that draws the listener in from the first moments – beginning with the dark, brooding language of Alban’s Berg’s Piano Sonata Op. 1, shaped in the shadow of Schoenberg, and continuing into the nebulous regions of Janáček’s impressionistic and near-contemporaneous “In the mists”, finally emerging into the clear light of Liszt’s immense - and immensely-influential - B-minor Sonata.
Denes Varjon - Precipitando (2012) {ECM New Series 2247}


ecmreviews.com INFO
AllMusic Review by James Manheim


Personnel:
Dénes Várjon piano

Recorded April 2011, Auditorio Radiotelevisione svizzera, Lugano
Engineer: Markus Heiland
Produced by Manfred Eicher


tracklist:
01 - Sonata op. 1 (Alban Berg)
02 - Andante (V Mlhach (In The Mists) (Leos Janacek)
03 - Molto Adagio (V Mlhach (In The Mists) (Leos Janacek)
04 - Andantino (V Mlhach (In The Mists) (Leos Janacek)
05 - Presto (V Mlhach (In The Mists) (Leos Janacek)
06 - Sonata In B Minor (Franz Liszt)

Exact Audio Copy V1.0 beta 3 from 29. August 2011

EAC extraction logfile from 28. April 2012, 11:33

Denes Varjon / Precipitando

Used drive : Optiarc DVD RW AD-7240S Adapter: 3 ID: 1

Read mode : Secure
Utilize accurate stream : Yes
Defeat audio cache : Yes
Make use of C2 pointers : No

Read offset correction : 48
Overread into Lead-In and Lead-Out : No
Fill up missing offset samples with silence : Yes
Delete leading and trailing silent blocks : No
Null samples used in CRC calculations : Yes
Used interface : Installed external ASPI interface
Gap handling : Appended to previous track

Used output format : User Defined Encoder
Selected bitrate : 896 kBit/s
Quality : High
Add ID3 tag : No
Command line compressor : C:\Program Files\Exact Audio Copy\Flac\flac.exe
Additional command line options : -8 -V -T "ARTIST=%artist%" -T "TITLE=%title%" -T "ALBUM=%albumtitle%" -T "DATE=%year%" -T "TRACKNUMBER=%tracknr%" -T "TOTALTRACKS=%numtracks%" -T "GENRE=%genre%" -T "ALBUMARTIST=%albumartist%" -T "ALBUM ARTIST=%albumartist%" -T "COMMENT=EAC Secure Mode, Test & Copy, AccurateRip, FLAC -8" %source%


TOC of the extracted CD

Track | Start | Length | Start sector | End sector
––––––––––––––––––––––––––––-
1 | 0:00.00 | 11:03.00 | 0 | 49724
2 | 11:03.00 | 3:28.11 | 49725 | 65335
3 | 14:31.11 | 5:08.11 | 65336 | 88446
4 | 19:39.22 | 2:57.00 | 88447 | 101721
5 | 22:36.22 | 4:13.53 | 101722 | 120749
6 | 26:50.00 | 31:10.00 | 120750 | 260999


Track 1

Filename F:\AneL\MY RIPS\01 - Sonata op. 1 (Alban Berg).wav

Pre-gap length 0:00:02.00

Peak level 93.2 %
Extraction speed 2.7 X
Track quality 99.9 %
Test CRC D3C2AE70
Copy CRC D3C2AE70
Track not present in AccurateRip database
Copy OK

Track 2

Filename F:\AneL\MY RIPS\02 - Andante (V Mlhach (In The Mists) (Leos Janacek).wav

Pre-gap length 0:00:08.20

Peak level 82.8 %
Extraction speed 2.5 X
Track quality 99.9 %
Test CRC 3B592A2F
Copy CRC 3B592A2F
Track not present in AccurateRip database
Copy OK

Track 3

Filename F:\AneL\MY RIPS\03 - Molto Adagio (V Mlhach (In The Mists) (Leos Janacek).wav

Peak level 70.1 %
Extraction speed 3.3 X
Track quality 100.0 %
Test CRC BB514693
Copy CRC BB514693
Track not present in AccurateRip database
Copy OK

Track 4

Filename F:\AneL\MY RIPS\04 - Andantino (V Mlhach (In The Mists) (Leos Janacek).wav

Peak level 77.6 %
Extraction speed 3.2 X
Track quality 100.0 %
Test CRC 0A259B0F
Copy CRC 0A259B0F
Track not present in AccurateRip database
Copy OK

Track 5

Filename F:\AneL\MY RIPS\05 - Presto (V Mlhach (In The Mists) (Leos Janacek).wav

Peak level 88.0 %
Extraction speed 3.6 X
Track quality 100.0 %
Test CRC 09C59164
Copy CRC 09C59164
Track not present in AccurateRip database
Copy OK

Track 6

Filename F:\AneL\MY RIPS\06 - Sonata In B Minor (Franz Liszt).wav

Pre-gap length 0:00:07.49

Peak level 100.0 %
Extraction speed 4.8 X
Track quality 100.0 %
Test CRC 13F4361F
Copy CRC 13F4361F
Track not present in AccurateRip database
Copy OK


None of the tracks are present in the AccurateRip database

No errors occurred

End of status report

==== Log checksum 576F83314624CEE1E9BCB21BABC81C0AF3687040CC652C062816788829ED4FB4 ====


Denes Varjon - Precipitando (2012) {ECM New Series 2247}

Denes Varjon - Precipitando (2012) {ECM New Series 2247}


All thanks goes to the original releaser!


===