Dexter Gordon - The Complete Columbia Albums Collection (2011) [7CD BoxSet] {Columbia Remaster}

Posted By: ruskaval
Dexter Gordon - The Complete Columbia Albums Collection (2011) [7CD BoxSet] {Columbia Remaster}

Dexter Gordon - The Complete Columbia Albums Collection (2011) [7CD BoxSet] {Columbia Remaster}
EAC rip (secure mode) | FLAC (tracks)+CUE+LOG -> 2.82 Gb | MP3 @320 -> 1.04 Gb
Full Artwork @ 300 dpi (png) -> 303 Mb | 5% repair rar
© 2011 Columbia / Legacy | 88697918912 6
Jazz / Hard Bop / Bop / Saxophone

Tenor saxophonist Dexter Gordon had been an expatriate since 1963 when he discovered Europe was where the consistently paying jazz gigs were to be found. In 1976 he returned to the States and began recording for Columbia Records and also embarked on an acting career. Sony Legacy repackaged and re-released six Dexter Gordon albums of that era in their entirety with mini-LP sleeves and original cover art: Homecoming: Live at the Village Vanguard (1976), Sophisticated Giant (1977), Manhattan Symphonie (1978), Live at Carnegie Hall (1978), and Gotham City (1980).
Dexter Gordon - The Complete Columbia Albums Collection (2011) [7CD BoxSet] {Columbia Remaster}

Also included is a bonus disc with tracks recorded at the Montreux Jazz Festival, the Havana Jam, and a version of Stevie Wonder’s “Isn’t She Lovely” that was released as a single in 1977. While not as celebrated as his Blue Note releases, these Columbia sessions show Gordon hadn’t lost his virtuosity and found him playing with a younger generation of jazz musicians such as Woody Shaw, Bobby Hutcherson, and George Cables. Lovingly produced by Michael Cuscuna with support from Woody Shaw's son and Gordon’s wife, manager and producer Maxine Gordon, who also provided liner notes with Cuscuna, The Complete Columbia Albums Collection affords listeners another opportunity to enjoy this final period of Dexter Gordon’s recorded output.
Dexter Gordon - The Complete Columbia Albums Collection (2011) [7CD BoxSet] {Columbia Remaster}

Dexter would be very happy to know that his Columbia recordings have been reissued by Sony Legacy / PopMarket. This box set represents a very important period in Dexter Gordon’s career, and an important stage in jazz history. Dexter’s return from Europe after 14 years residing there helped rekindle a new level of enthusiasm in the jazz world, a wave of excitement that many other musicians benefited from. Dexter also won a number of Downbeat Critics and Readers Poll Awards during this period, and two Grammy nominations for Homecoming and Sophisticated Giant, respectively. These recordings on Columbia, signed off on by then-President Bruce Lundvall, also facilitated a reunion of sorts between many musicians who might not have otherwise ever recorded together or been featured collectively within the same release, the likes of which included: Tony Williams, Slide Hampton, Frank Wess, Stan Getz, Hubert Laws, Jimmy Heath, Eddie Gladden, Billy Brooks, Ronnie Matthews, Stafford James, Louis Hayes, Art Blakey, and others. All of these musicians appear on The Complete Columbia Albums Collection in various settings from the original studio dates to live performances in NYC and at the Havana Jam in Cuba in 1979.

Dexter’s triumphant return and his rise back into popularity in the 1970s and 80s had a reverberating affect on the music world, a lasting impact which has laid much of the ground work for the music of today. Albums in this set include a double-CD of ‘Homecoming: Live at the Village Vanguard’ featuring Woody Shaw, Dexter’s big band recording ‘Sophisticated Giant’ with arrangements by Slide Hampton, ‘Live at Carnegie Hall’ with Johnnie Griffin, ‘Gotham City’ (never before issued on CD) with Art Blakey, Woody Shaw, George Benson, Percy Heath, and Cedar Walton, and a new CD of unreleased material. Other bonus recordings are included intermittently throughout the set. The recordings are also remastered, and the set includes new photos and liner notes by producer Michael Cuscuna and Gordon’s widow Maxine Gordon.

DG INFO

Personnel: Dexter Gordon (soprano saxophone, tenor saxophone); Eddie Jefferson (vocals); George Benson (guitar); Frank Wess (flute, piccolo, alto saxophone); Howard Johnson (baritone saxophone, tuba); Woody Shaw, Benny Bailey (trumpet, flugelhorn); Curtis Fuller, Slide Hampton, Wayne Andre (trombone); George Cables, George Duke, Kirk Lightsey, Ronnie Mathews, Cedar Walton (piano); Bobby Hutcherson (vibraphone); Eddie Gladden, Louis Hayes, Art Blakey, Victor Lewis, Billy Brooks (drums); David Eubanks, Bob Babbitt, Percy Heath, Stafford James, Gordon Johnson, Rufus Reid (bass).

tracklist:
DISC 1: HOMECOMING: LIVE AT THE VILLAGE VANGUARD DISC ONE (1976)

01. Gingerbread Boy
02. Little Red's Fantasy
03. Fenja
04. In Case You Haven't Heard
05. Fried Bananas

DISC 2: HOMECOMING: LIVE AT THE VILLAGE VANGUARD DISC TWO (1976)
01. It's You or No One
02. Let's Get Down
03. 'Round Midnight
04. Backstairs
05. Body and Soul

DISC 3: SOPHISTICATED GIANT (1977)
01. Laura
02. Moontrane, The
03. Red Top
04. Fried Bananas
05. You're Blasé
06. How Insensitive
07. Diggin' In
08. It's Only a Paper Moon

DISC 4: MANHATTAN SYMPHONIE (1978)
01. As Time Goes By
02. Moment's Notice
03. Tanya
04. I Told You So
05.Body and Soul
06. LTD
07. Ruby, My Dear
08. Secret Love

DISC 5: LIVE AT CARNEGIE HALL (1978)
01. Introduction
02. Secret Love
03. Introduction
04. End of a Love Affair, The
05. Introduction
06. More Than You Know
07. Introduction
08. Blues Up and Down
09. Introduction
10. Cheesecake

DISC 6: GOTHAM CITY (1980) [plus bonus tracks]
01. Hi Fly
02. Nightingale Sang in Berkeley Square, A
03. Blues Walk, The (Loose Walk)
04. Gotham City
05. Conversation with Dexter Gordon: Gotham City/A Nightingale Sang in Berkeley Square/Hi Fly/Blues Walk, A
06. Have Yourself a Merry Little Christmas [Short Version]
07. Have Yourself a Merry Little Christmas [Long Version]

DISC 7: BONUS TRACKS - GREAT ENCOUNTERS [a new compilation disc of bonus material]
01. Fried Bananas
02. The Moontrane
03. Red Top
04. Polka Dots and Moonbeams
05. Project S
06. Isn't She Lovely

Exact Audio Copy V1.0 beta 3 from 29. August 2011

EAC extraction logfile from 19. February 2013, 17:55

Dexter Gordon / Homecoming: Live At The Village Vanguard

Used drive : hp CDDVDW TS-L633N Adapter: 0 ID: 0

Read mode : Secure
Utilize accurate stream : Yes
Defeat audio cache : Yes
Make use of C2 pointers : No

Read offset correction : 6
Overread into Lead-In and Lead-Out : No
Fill up missing offset samples with silence : Yes
Delete leading and trailing silent blocks : No
Null samples used in CRC calculations : Yes
Used interface : Native Win32 interface for Win NT & 2000
Gap handling : Appended to previous track

Used output format : User Defined Encoder
Selected bitrate : 1024 kBit/s
Quality : High
Add ID3 tag : No
Command line compressor : C:\Program Files (x86)\Exact Audio Copy\FLAC\FLAC.EXE
Additional command line options : -8 -V -T "ARTIST=%artist%" -T "TITLE=%title%" -T "ALBUM=%albumtitle%" -T "DATE=%year%" -T "TRACKNUMBER=%tracknr%" -T "TOTALTRACKS=%numtracks%" -T "GENRE=%genre%" -T "ALBUMARTIST=%albumartist%" -T "ALBUM ARTIST=%albumartist%" -T "COMMENT=EAC Secure Mode, Test & Copy, AccurateRip, FLAC -8" %source%


TOC of the extracted CD

Track | Start | Length | Start sector | End sector
––––––––––––––––––––––––––––-
1 | 0:00.43 | 13:48.57 | 43 | 62199
2 | 13:49.25 | 12:47.08 | 62200 | 119732
3 | 26:36.33 | 12:46.49 | 119733 | 177231
4 | 39:23.07 | 11:14.35 | 177232 | 227816
5 | 50:37.42 | 14:36.34 | 227817 | 293550


Track 1

Filename C:\EAC Rip\01 - Gingerbread Boy.wav

Pre-gap length 0:00:02.57

Peak level 98.6 %
Extraction speed 3.0 X
Track quality 100.0 %
Test CRC 97927245
Copy CRC 97927245
Accurately ripped (confidence 1) [A5065999] (AR v2)
Copy OK

Track 2

Filename C:\EAC Rip\02 - Little Red's Fantasy.wav

Pre-gap length 0:00:00.72

Peak level 98.0 %
Extraction speed 3.7 X
Track quality 100.0 %
Test CRC 51487702
Copy CRC 51487702
Accurately ripped (confidence 1) [27187171] (AR v2)
Copy OK

Track 3

Filename C:\EAC Rip\03 - Fenja.wav

Pre-gap length 0:00:00.45

Peak level 97.9 %
Extraction speed 4.2 X
Track quality 100.0 %
Test CRC F6FB2A36
Copy CRC F6FB2A36
Accurately ripped (confidence 1) [39EFD34C] (AR v2)
Copy OK

Track 4

Filename C:\EAC Rip\04 - In Case You Haven't Heard.wav

Peak level 99.1 %
Extraction speed 4.6 X
Track quality 100.0 %
Test CRC 38BD1C08
Copy CRC 38BD1C08
Accurately ripped (confidence 1) [09BD07EF] (AR v2)
Copy OK

Track 5

Filename C:\EAC Rip\05 - Fried Bananas.wav

Pre-gap length 0:00:00.68

Peak level 97.8 %
Extraction speed 5.1 X
Track quality 100.0 %
Test CRC 2CC9145B
Copy CRC 2CC9145B
Accurately ripped (confidence 1) [F8221487] (AR v2)
Copy OK


All tracks accurately ripped

No errors occurred

End of status report

==== Log checksum FBC7CA237CCE0D0BA1E46767F17B2868112AC587A05B25B9AB4F0310C37694F8 ====

Exact Audio Copy V1.0 beta 3 from 29. August 2011

EAC extraction logfile from 19. February 2013, 19:55

Dexter Gordon / Homecoming: Live At The Village Vanguard

Used drive : hp CDDVDW TS-L633N Adapter: 0 ID: 0

Read mode : Secure
Utilize accurate stream : Yes
Defeat audio cache : Yes
Make use of C2 pointers : No

Read offset correction : 6
Overread into Lead-In and Lead-Out : No
Fill up missing offset samples with silence : Yes
Delete leading and trailing silent blocks : No
Null samples used in CRC calculations : Yes
Used interface : Native Win32 interface for Win NT & 2000
Gap handling : Appended to previous track

Used output format : User Defined Encoder
Selected bitrate : 1024 kBit/s
Quality : High
Add ID3 tag : No
Command line compressor : C:\Program Files (x86)\Exact Audio Copy\FLAC\FLAC.EXE
Additional command line options : -8 -V -T "ARTIST=%artist%" -T "TITLE=%title%" -T "ALBUM=%albumtitle%" -T "DATE=%year%" -T "TRACKNUMBER=%tracknr%" -T "TOTALTRACKS=%numtracks%" -T "GENRE=%genre%" -T "ALBUMARTIST=%albumartist%" -T "ALBUM ARTIST=%albumartist%" -T "COMMENT=EAC Secure Mode, Test & Copy, AccurateRip, FLAC -8" %source%


TOC of the extracted CD

Track | Start | Length | Start sector | End sector
––––––––––––––––––––––––––––-
1 | 0:00.43 | 14:02.13 | 43 | 63205
2 | 14:02.56 | 13:10.35 | 63206 | 122490
3 | 27:13.16 | 13:10.66 | 122491 | 181806
4 | 40:24.07 | 12:49.64 | 181807 | 239545
5 | 53:13.71 | 13:03.23 | 239546 | 298293


Track 1

Filename C:\EAC Rip\01 - It's You Or No One.wav

Pre-gap length 0:00:02.57

Peak level 98.2 %
Extraction speed 3.1 X
Track quality 100.0 %
Test CRC E3F09A61
Copy CRC E3F09A61
Accurately ripped (confidence 1) [188C8838] (AR v2)
Copy OK

Track 2

Filename C:\EAC Rip\02 - Let's Get Down.wav

Pre-gap length 0:00:00.97

Peak level 98.5 %
Extraction speed 3.4 X
Track quality 99.9 %
Test CRC C7A0680D
Copy CRC C7A0680D
Accurately ripped (confidence 1) [022F9B03] (AR v2)
Copy OK

Track 3

Filename C:\EAC Rip\03 - 'Round Midnight.wav

Pre-gap length 0:00:00.70

Peak level 94.3 %
Extraction speed 3.2 X
Track quality 99.9 %
Test CRC 42A6E3D3
Copy CRC 42A6E3D3
Cannot be verified as accurate (confidence 1) [78A5650D], AccurateRip returned [890084BC] (AR v2)
Copy OK

Track 4

Filename C:\EAC Rip\04 - Backstairs.wav

Peak level 97.8 %
Extraction speed 3.9 X
Track quality 99.9 %
Test CRC EC9020DB
Copy CRC EC9020DB
Cannot be verified as accurate (confidence 1) [CEA287CD], AccurateRip returned [6366EFC0] (AR v2)
Copy OK

Track 5

Filename C:\EAC Rip\05 - Body And Soul.wav

Peak level 93.7 %
Extraction speed 5.1 X
Track quality 100.0 %
Test CRC F5DECF6C
Copy CRC F5DECF6C
Accurately ripped (confidence 1) [5FF3CD1D] (AR v2)
Copy OK


3 track(s) accurately ripped
2 track(s) could not be verified as accurate

Some tracks could not be verified as accurate

No errors occurred

End of status report

==== Log checksum 452B58DFD8C0E8B39F830ACC9C2B5A0A3CBCE1E8A10C409AC9C0EF513702BB68 ====

Exact Audio Copy V1.0 beta 3 from 29. August 2011

EAC extraction logfile from 19. February 2013, 22:01

Dexter Gordon / Sophisticated Giant

Used drive : hp CDDVDW TS-L633N Adapter: 0 ID: 0

Read mode : Secure
Utilize accurate stream : Yes
Defeat audio cache : Yes
Make use of C2 pointers : No

Read offset correction : 6
Overread into Lead-In and Lead-Out : No
Fill up missing offset samples with silence : Yes
Delete leading and trailing silent blocks : No
Null samples used in CRC calculations : Yes
Used interface : Native Win32 interface for Win NT & 2000
Gap handling : Appended to previous track

Used output format : User Defined Encoder
Selected bitrate : 1024 kBit/s
Quality : High
Add ID3 tag : No
Command line compressor : C:\Program Files (x86)\Exact Audio Copy\FLAC\FLAC.EXE
Additional command line options : -8 -V -T "ARTIST=%artist%" -T "TITLE=%title%" -T "ALBUM=%albumtitle%" -T "DATE=%year%" -T "TRACKNUMBER=%tracknr%" -T "TOTALTRACKS=%numtracks%" -T "GENRE=%genre%" -T "ALBUMARTIST=%albumartist%" -T "ALBUM ARTIST=%albumartist%" -T "COMMENT=EAC Secure Mode, Test & Copy, AccurateRip, FLAC -8" %source%


TOC of the extracted CD

Track | Start | Length | Start sector | End sector
––––––––––––––––––––––––––––-
1 | 0:00.00 | 7:40.47 | 0 | 34546
2 | 7:40.47 | 6:38.65 | 34547 | 64461
3 | 14:19.37 | 8:53.15 | 64462 | 104451
4 | 23:12.52 | 7:54.35 | 104452 | 140036
5 | 31:07.12 | 9:52.23 | 140037 | 184459
6 | 40:59.35 | 4:56.32 | 184460 | 206691
7 | 45:55.67 | 4:51.05 | 206692 | 228521
8 | 50:46.72 | 5:08.25 | 228522 | 251646


Track 1

Filename C:\EAC Rip\01 - Laura.wav

Pre-gap length 0:00:02.00

Peak level 80.5 %
Extraction speed 2.8 X
Track quality 100.0 %
Test CRC C02730F7
Copy CRC C02730F7
Accurately ripped (confidence 1) [CD92A2A7] (AR v2)
Copy OK

Track 2

Filename C:\EAC Rip\02 - The Moontrane.wav

Pre-gap length 0:00:03.60

Peak level 100.0 %
Extraction speed 3.1 X
Track quality 100.0 %
Test CRC 470E6E4C
Copy CRC 470E6E4C
Accurately ripped (confidence 1) [734C5B44] (AR v2)
Copy OK

Track 3

Filename C:\EAC Rip\03 - Red Top.wav

Pre-gap length 0:00:02.73

Peak level 97.7 %
Extraction speed 3.2 X
Track quality 99.9 %
Test CRC 7F3D15CC
Copy CRC 7F3D15CC
Accurately ripped (confidence 1) [51865E40] (AR v2)
Copy OK

Track 4

Filename C:\EAC Rip\04 - Fried Bananas.wav

Pre-gap length 0:00:02.49

Peak level 82.1 %
Extraction speed 3.9 X
Track quality 100.0 %
Test CRC 1DB50D0B
Copy CRC 1DB50D0B
Accurately ripped (confidence 1) [88E9B3BC] (AR v2)
Copy OK

Track 5

Filename C:\EAC Rip\05 - You're Blase.wav

Pre-gap length 0:00:01.82

Peak level 100.0 %
Extraction speed 4.3 X
Track quality 100.0 %
Test CRC 02D3811F
Copy CRC 02D3811F
Accurately ripped (confidence 1) [A59F4C72] (AR v2)
Copy OK

Track 6

Filename C:\EAC Rip\06 - How Insensitive.wav

Pre-gap length 0:00:02.84

Peak level 92.2 %
Extraction speed 4.2 X
Track quality 100.0 %
Test CRC 862D74F0
Copy CRC 862D74F0
Accurately ripped (confidence 1) [E4BA9943] (AR v2)
Copy OK

Track 7

Filename C:\EAC Rip\07 - Diggin' In.wav

Pre-gap length 0:00:03.82

Peak level 60.3 %
Extraction speed 4.4 X
Track quality 100.0 %
Test CRC 60D3A843
Copy CRC 60D3A843
Accurately ripped (confidence 1) [1D69FD57] (AR v2)
Copy OK

Track 8

Filename C:\EAC Rip\08 - It's Only A Paper Moon.wav

Pre-gap length 0:00:02.96

Peak level 61.2 %
Extraction speed 4.5 X
Track quality 100.0 %
Test CRC 6AA8EEBA
Copy CRC 6AA8EEBA
Accurately ripped (confidence 1) [14422E30] (AR v2)
Copy OK


All tracks accurately ripped

No errors occurred

End of status report

==== Log checksum 5BA2E914C8739FEC816303A2A252EA49E686AD5D4A2317A1BEF19D6791C86313 ====

Exact Audio Copy V1.0 beta 3 from 29. August 2011

EAC extraction logfile from 19. February 2013, 22:48

Dexter Gordon / Manhattan Symphonie

Used drive : hp CDDVDW TS-L633N Adapter: 0 ID: 0

Read mode : Secure
Utilize accurate stream : Yes
Defeat audio cache : Yes
Make use of C2 pointers : No

Read offset correction : 6
Overread into Lead-In and Lead-Out : No
Fill up missing offset samples with silence : Yes
Delete leading and trailing silent blocks : No
Null samples used in CRC calculations : Yes
Used interface : Native Win32 interface for Win NT & 2000
Gap handling : Appended to previous track

Used output format : User Defined Encoder
Selected bitrate : 1024 kBit/s
Quality : High
Add ID3 tag : No
Command line compressor : C:\Program Files (x86)\Exact Audio Copy\FLAC\FLAC.EXE
Additional command line options : -8 -V -T "ARTIST=%artist%" -T "TITLE=%title%" -T "ALBUM=%albumtitle%" -T "DATE=%year%" -T "TRACKNUMBER=%tracknr%" -T "TOTALTRACKS=%numtracks%" -T "GENRE=%genre%" -T "ALBUMARTIST=%albumartist%" -T "ALBUM ARTIST=%albumartist%" -T "COMMENT=EAC Secure Mode, Test & Copy, AccurateRip, FLAC -8" %source%


TOC of the extracted CD

Track | Start | Length | Start sector | End sector
––––––––––––––––––––––––––––-
1 | 0:00.00 | 8:59.63 | 0 | 40487
2 | 8:59.63 | 8:25.29 | 40488 | 78391
3 | 17:25.17 | 7:26.63 | 78392 | 111904
4 | 24:52.05 | 6:19.47 | 111905 | 140376
5 | 31:11.52 | 12:51.45 | 140377 | 198246
6 | 44:03.22 | 6:43.10 | 198247 | 228481
7 | 50:46.32 | 8:44.38 | 228482 | 267819
8 | 59:30.70 | 10:44.09 | 267820 | 316128


Track 1

Filename C:\EAC Rip\01 - As Time Goes By.wav

Pre-gap length 0:00:02.00

Peak level 100.0 %
Extraction speed 2.5 X
Track quality 99.9 %
Test CRC 26C4ED78
Copy CRC 26C4ED78
Accurately ripped (confidence 3) [29725741] (AR v1)
Copy OK

Track 2

Filename C:\EAC Rip\02 - Moment's Notice.wav

Peak level 98.8 %
Extraction speed 3.3 X
Track quality 100.0 %
Test CRC C93F41EB
Copy CRC C93F41EB
Accurately ripped (confidence 3) [2217847F] (AR v1)
Copy OK

Track 3

Filename C:\EAC Rip\03 - Tanya.wav

Peak level 98.8 %
Extraction speed 3.1 X
Track quality 99.9 %
Test CRC A7FDF7E3
Copy CRC A7FDF7E3
Accurately ripped (confidence 3) [07A9F3ED] (AR v1)
Copy OK

Track 4

Filename C:\EAC Rip\04 - I Told You So.wav

Peak level 98.8 %
Extraction speed 3.8 X
Track quality 100.0 %
Test CRC 3F2920E5
Copy CRC 3F2920E5
Accurately ripped (confidence 3) [86A7F31D] (AR v1)
Copy OK

Track 5

Filename C:\EAC Rip\05 - Body And Soul.wav

Peak level 98.8 %
Extraction speed 4.4 X
Track quality 100.0 %
Test CRC 297FB2EB
Copy CRC 297FB2EB
Accurately ripped (confidence 3) [153A4089] (AR v1)
Copy OK

Track 6

Filename C:\EAC Rip\06 - LTD.wav

Peak level 98.8 %
Extraction speed 4.5 X
Track quality 100.0 %
Test CRC 1E42FBC2
Copy CRC 1E42FBC2
Accurately ripped (confidence 3) [E651A38D] (AR v1)
Copy OK

Track 7

Filename C:\EAC Rip\07 - Ruby, My Dear.wav

Peak level 83.5 %
Extraction speed 4.9 X
Track quality 100.0 %
Test CRC 591394F6
Copy CRC 591394F6
Accurately ripped (confidence 3) [DDDC25AC] (AR v1)
Copy OK

Track 8

Filename C:\EAC Rip\08 - Secret Love.wav

Peak level 100.0 %
Extraction speed 5.2 X
Track quality 100.0 %
Test CRC 292845F1
Copy CRC 292845F1
Accurately ripped (confidence 3) [BD986131] (AR v1)
Copy OK


All tracks accurately ripped

No errors occurred

End of status report

==== Log checksum 1C5FFE8939DE10639E1DBD90CCAB02DB24EDD9D034286DFF3200335FF7D154C2 ====

Exact Audio Copy V1.0 beta 3 from 29. August 2011

EAC extraction logfile from 19. February 2013, 23:44

Dexter Gordon / Live At Carnegie Hall

Used drive : hp CDDVDW TS-L633N Adapter: 0 ID: 0

Read mode : Secure
Utilize accurate stream : Yes
Defeat audio cache : Yes
Make use of C2 pointers : No

Read offset correction : 6
Overread into Lead-In and Lead-Out : No
Fill up missing offset samples with silence : Yes
Delete leading and trailing silent blocks : No
Null samples used in CRC calculations : Yes
Used interface : Native Win32 interface for Win NT & 2000
Gap handling : Appended to previous track

Used output format : User Defined Encoder
Selected bitrate : 1024 kBit/s
Quality : High
Add ID3 tag : No
Command line compressor : C:\Program Files (x86)\Exact Audio Copy\FLAC\FLAC.EXE
Additional command line options : -8 -V -T "ARTIST=%artist%" -T "TITLE=%title%" -T "ALBUM=%albumtitle%" -T "DATE=%year%" -T "TRACKNUMBER=%tracknr%" -T "TOTALTRACKS=%numtracks%" -T "GENRE=%genre%" -T "ALBUMARTIST=%albumartist%" -T "ALBUM ARTIST=%albumartist%" -T "COMMENT=EAC Secure Mode, Test & Copy, AccurateRip, FLAC -8" %source%


TOC of the extracted CD

Track | Start | Length | Start sector | End sector
––––––––––––––––––––––––––––-
1 | 0:00.00 | 1:00.70 | 0 | 4569
2 | 1:00.70 | 12:27.45 | 4570 | 60639
3 | 13:28.40 | 0:30.72 | 60640 | 62961
4 | 13:59.37 | 14:35.73 | 62962 | 128659
5 | 28:35.35 | 0:54.00 | 128660 | 132709
6 | 29:29.35 | 17:02.00 | 132710 | 209359
7 | 46:31.35 | 1:15.52 | 209360 | 215036
8 | 47:47.12 | 13:03.23 | 215037 | 273784
9 | 60:50.35 | 0:35.45 | 273785 | 276454
10 | 61:26.05 | 15:17.62 | 276455 | 345291


Track 1

Filename C:\EAC Rip\01 - Introduction.wav

Pre-gap length 0:00:02.00

Peak level 33.0 %
Extraction speed 1.6 X
Track quality 100.0 %
Test CRC A15DD800
Copy CRC A15DD800
Accurately ripped (confidence 1) [E6BB5240] (AR v2)
Copy OK

Track 2

Filename C:\EAC Rip\02 - Secret Love.wav

Peak level 100.0 %
Extraction speed 3.0 X
Track quality 100.0 %
Test CRC 5EF4AD48
Copy CRC 5EF4AD48
Accurately ripped (confidence 1) [F44C4732] (AR v2)
Copy OK

Track 3

Filename C:\EAC Rip\03 - Introduction.wav

Peak level 38.8 %
Extraction speed 1.6 X
Track quality 100.0 %
Test CRC 787A46EF
Copy CRC 787A46EF
Accurately ripped (confidence 1) [3109EE42] (AR v2)
Copy OK

Track 4

Filename C:\EAC Rip\04 - The End Of A Love Affair.wav

Peak level 100.0 %
Extraction speed 3.8 X
Track quality 100.0 %
Test CRC 0DC548FA
Copy CRC 0DC548FA
Accurately ripped (confidence 1) [DDD5F9F1] (AR v2)
Copy OK

Track 5

Filename C:\EAC Rip\05 - Introduction.wav

Peak level 32.5 %
Extraction speed 2.4 X
Track quality 100.0 %
Test CRC DC2B29E2
Copy CRC DC2B29E2
Accurately ripped (confidence 1) [9616720B] (AR v2)
Copy OK

Track 6

Filename C:\EAC Rip\06 - More Than You Know.wav

Peak level 96.4 %
Extraction speed 4.5 X
Track quality 100.0 %
Test CRC AF7DB879
Copy CRC AF7DB879
Accurately ripped (confidence 1) [956E9A7A] (AR v2)
Copy OK

Track 7

Filename C:\EAC Rip\07 - Introduction.wav

Peak level 50.3 %
Extraction speed 2.0 X
Track quality 99.8 %
Test CRC 228DBCDE
Copy CRC 228DBCDE
Accurately ripped (confidence 1) [879FFA22] (AR v2)
Copy OK

Track 8

Filename C:\EAC Rip\08 - Blues Up And Down.wav

Peak level 100.0 %
Extraction speed 5.0 X
Track quality 100.0 %
Test CRC 6AE6DBD3
Copy CRC 6AE6DBD3
Accurately ripped (confidence 1) [F162E3E8] (AR v2)
Copy OK

Track 9

Filename C:\EAC Rip\09 - Introduction.wav

Peak level 51.7 %
Extraction speed 2.5 X
Track quality 100.0 %
Test CRC 155B013B
Copy CRC 155B013B
Accurately ripped (confidence 1) [333EE7DA] (AR v2)
Copy OK

Track 10

Filename C:\EAC Rip\10 - Cheesecake.wav

Peak level 100.0 %
Extraction speed 5.4 X
Track quality 100.0 %
Test CRC 53BA98BF
Copy CRC 53BA98BF
Accurately ripped (confidence 1) [2FBFFF07] (AR v2)
Copy OK


All tracks accurately ripped

No errors occurred

End of status report

==== Log checksum 3F53354347DEB49B2E69C987A4369F1A360AF88D6246A87A91D9C785B43B46D7 ====

Exact Audio Copy V1.0 beta 3 from 29. August 2011

EAC extraction logfile from 20. February 2013, 0:32

Dexter Gordon / Gotham City

Used drive : hp CDDVDW TS-L633N Adapter: 0 ID: 0

Read mode : Secure
Utilize accurate stream : Yes
Defeat audio cache : Yes
Make use of C2 pointers : No

Read offset correction : 6
Overread into Lead-In and Lead-Out : No
Fill up missing offset samples with silence : Yes
Delete leading and trailing silent blocks : No
Null samples used in CRC calculations : Yes
Used interface : Native Win32 interface for Win NT & 2000
Gap handling : Appended to previous track

Used output format : User Defined Encoder
Selected bitrate : 1024 kBit/s
Quality : High
Add ID3 tag : No
Command line compressor : C:\Program Files (x86)\Exact Audio Copy\FLAC\FLAC.EXE
Additional command line options : -8 -V -T "ARTIST=%artist%" -T "TITLE=%title%" -T "ALBUM=%albumtitle%" -T "DATE=%year%" -T "TRACKNUMBER=%tracknr%" -T "TOTALTRACKS=%numtracks%" -T "GENRE=%genre%" -T "ALBUMARTIST=%albumartist%" -T "ALBUM ARTIST=%albumartist%" -T "COMMENT=EAC Secure Mode, Test & Copy, AccurateRip, FLAC -8" %source%


TOC of the extracted CD

Track | Start | Length | Start sector | End sector
––––––––––––––––––––––––––––-
1 | 0:00.43 | 9:38.20 | 43 | 43412
2 | 9:38.63 | 7:15.34 | 43413 | 76071
3 | 16:54.22 | 8:21.69 | 76072 | 113715
4 | 25:16.16 | 9:21.19 | 113716 | 155809
5 | 34:37.35 | 5:55.54 | 155810 | 182488
6 | 40:33.14 | 7:06.01 | 182489 | 214439
7 | 47:39.15 | 9:40.00 | 214440 | 257939


Track 1

Filename C:\EAC Rip\01 - Hi Fly.wav

Pre-gap length 0:00:02.57

Peak level 97.9 %
Extraction speed 2.8 X
Track quality 100.0 %
Test CRC 8F958A54
Copy CRC 8F958A54
Accurately ripped (confidence 1) [8F9371F0] (AR v2)
Copy OK

Track 2

Filename C:\EAC Rip\02 - A Nightingale Sang In Berkeley Square.wav

Pre-gap length 0:00:03.20

Peak level 93.7 %
Extraction speed 3.2 X
Track quality 100.0 %
Test CRC B7816537
Copy CRC B7816537
Accurately ripped (confidence 1) [C837389F] (AR v2)
Copy OK

Track 3

Filename C:\EAC Rip\03 - The Blues Walk (Loose Walk).wav

Pre-gap length 0:00:01.72

Peak level 97.4 %
Extraction speed 3.6 X
Track quality 100.0 %
Test CRC 9CC54F49
Copy CRC 9CC54F49
Accurately ripped (confidence 1) [E4FFCC54] (AR v2)
Copy OK

Track 4

Filename C:\EAC Rip\04 - Gotham City.wav

Pre-gap length 0:00:01.25

Peak level 96.2 %
Extraction speed 4.0 X
Track quality 100.0 %
Test CRC 3DF50A7C
Copy CRC 3DF50A7C
Accurately ripped (confidence 1) [124D3AAF] (AR v2)
Copy OK

Track 5

Filename C:\EAC Rip\05 - A Conversation With Dexter Gordon.wav

Pre-gap length 0:00:01.49

Peak level 91.3 %
Extraction speed 4.1 X
Track quality 100.0 %
Test CRC 0BE5B3D3
Copy CRC 0BE5B3D3
Accurately ripped (confidence 1) [78A856EF] (AR v2)
Copy OK

Track 6

Filename C:\EAC Rip\06 - Have Yourself A Merry Little Christmas (Short Version).wav

Pre-gap length 0:00:02.16

Peak level 97.1 %
Extraction speed 4.4 X
Track quality 100.0 %
Test CRC C32D2BF9
Copy CRC C32D2BF9
Accurately ripped (confidence 1) [C4C26619] (AR v2)
Copy OK

Track 7

Filename C:\EAC Rip\07 - Have Yourself A Merry Little Christmas (Long Version).wav

Pre-gap length 0:00:00.93

Peak level 96.2 %
Extraction speed 4.3 X
Track quality 99.9 %
Test CRC 8B837A5F
Copy CRC 8B837A5F
Accurately ripped (confidence 1) [C9ECEB99] (AR v2)
Copy OK


All tracks accurately ripped

No errors occurred

End of status report

==== Log checksum 18EB265F9F93DCC107BBBE26471A9CCAE7647A2ED7037F5CEAC63162F6C4389C ====

Exact Audio Copy V1.0 beta 3 from 29. August 2011

EAC extraction logfile from 20. February 2013, 1:23

Dexter Gordon / Great Encounters

Used drive : hp CDDVDW TS-L633N Adapter: 0 ID: 0

Read mode : Secure
Utilize accurate stream : Yes
Defeat audio cache : Yes
Make use of C2 pointers : No

Read offset correction : 6
Overread into Lead-In and Lead-Out : No
Fill up missing offset samples with silence : Yes
Delete leading and trailing silent blocks : No
Null samples used in CRC calculations : Yes
Used interface : Native Win32 interface for Win NT & 2000
Gap handling : Appended to previous track

Used output format : User Defined Encoder
Selected bitrate : 1024 kBit/s
Quality : High
Add ID3 tag : No
Command line compressor : C:\Program Files (x86)\Exact Audio Copy\FLAC\FLAC.EXE
Additional command line options : -8 -V -T "ARTIST=%artist%" -T "TITLE=%title%" -T "ALBUM=%albumtitle%" -T "DATE=%year%" -T "TRACKNUMBER=%tracknr%" -T "TOTALTRACKS=%numtracks%" -T "GENRE=%genre%" -T "ALBUMARTIST=%albumartist%" -T "ALBUM ARTIST=%albumartist%" -T "COMMENT=EAC Secure Mode, Test & Copy, AccurateRip, FLAC -8" %source%


TOC of the extracted CD

Track | Start | Length | Start sector | End sector
––––––––––––––––––––––––––––-
1 | 0:00.43 | 13:15.52 | 43 | 59719
2 | 13:16.20 | 9:59.63 | 59720 | 104707
3 | 23:16.08 | 11:27.59 | 104708 | 156291
4 | 34:43.67 | 11:41.59 | 156292 | 208925
5 | 46:25.51 | 8:36.07 | 208926 | 247632
6 | 55:01.58 | 3:21.32 | 247633 | 262739


Track 1

Filename C:\EAC Rip\01 - Fried Bananas.wav

Pre-gap length 0:00:02.57

Peak level 90.4 %
Extraction speed 3.0 X
Track quality 100.0 %
Test CRC 53364F5D
Copy CRC 53364F5D
Accurately ripped (confidence 1) [B6ACA790] (AR v2)
Copy OK

Track 2

Filename C:\EAC Rip\02 - The Moontrane.wav

Pre-gap length 0:00:01.54

Peak level 74.0 %
Extraction speed 3.6 X
Track quality 100.0 %
Test CRC 48DA6E9E
Copy CRC 48DA6E9E
Accurately ripped (confidence 1) [44A0D58A] (AR v2)
Copy OK

Track 3

Filename C:\EAC Rip\03 - Red Top.wav

Pre-gap length 0:00:00.81

Peak level 73.3 %
Extraction speed 4.0 X
Track quality 100.0 %
Test CRC 2223024A
Copy CRC 2223024A
Accurately ripped (confidence 1) [4082B607] (AR v2)
Copy OK

Track 4

Filename C:\EAC Rip\04 - Polka Dots And Moonbeams.wav

Pre-gap length 0:00:00.93

Peak level 94.7 %
Extraction speed 4.4 X
Track quality 100.0 %
Test CRC C9D0046A
Copy CRC C9D0046A
Accurately ripped (confidence 1) [45029566] (AR v2)
Copy OK

Track 5

Filename C:\EAC Rip\05 - Project S.wav

Pre-gap length 0:00:01.16

Peak level 72.8 %
Extraction speed 4.7 X
Track quality 100.0 %
Test CRC 0D50DDBA
Copy CRC 0D50DDBA
Accurately ripped (confidence 1) [017307BB] (AR v2)
Copy OK

Track 6

Filename C:\EAC Rip\06 - Isn't She Lovely.wav

Peak level 92.6 %
Extraction speed 4.3 X
Track quality 100.0 %
Test CRC 7C8D7FA8
Copy CRC 7C8D7FA8
Accurately ripped (confidence 1) [D390FD56] (AR v2)
Copy OK


All tracks accurately ripped

No errors occurred

End of status report

==== Log checksum A14E7404162F2ADE022B50851D4F89C53BEC246F9BAB9F1FBB0F1DBA5A8A5AB6 ====


Dexter Gordon - The Complete Columbia Albums Collection (2011) [7CD BoxSet] {Columbia Remaster}

Dexter Gordon - The Complete Columbia Albums Collection (2011) [7CD BoxSet] {Columbia Remaster}

Dexter Gordon - The Complete Columbia Albums Collection (2011) [7CD BoxSet] {Columbia Remaster}


Thanks to rjcola27!


CD1-2
HOMECOMING: LIVE AT THE VILLAGE VANGUARD [2CD] (1976)


UPLOADED Linkz

BITSHARE Linkz



CD3
SOPHISTICATED GIANT (1977)


UPLOADED Linkz

BITSHARE Linkz



CD4
MANHATTAN SYMPHONIE (1978)


UPLOADED Linkz

BITSHARE Linkz



CD5
LIVE AT CARNEGIE HALL (1978)


UPLOADED Linkz

BITSHARE Linkz



CD6
GOTHAM CITY (1980) [plus bonus tracks]


UPLOADED Linkz

BITSHARE Linkz



CD7
BONUS TRACKS - GREAT ENCOUNTERS [a new compilation disc of bonus material]


UPLOADED Linkz

BITSHARE Linkz



ARTWORK

UPLOADED Linkz

BITSHARE Linkz