Subcategories

Die Happy - Bitter To Better (2x CD) (GUN 225, BMG 82876 75738 2) (GER 2005)

Posted By: luckburz
Die Happy - Bitter To Better (2x CD) (GUN 225, BMG 82876 75738 2) (GER 2005)

Die Happy - Bitter To Better (2x CD) (GUN 225, BMG 82876 75738 2) (GER 2005)
2005 | FLAC | EAC, LOG & CUE | 300dpi Artwork Scans | 925 MB

MD5 [] FFP [] CUE [X] LOG [X] INFO TEXT [X] ARTWORK [X]


Extraction Log:

Exact Audio Copy V0.99 prebeta 4 from 23. January 2008

EAC Auslese-Logdatei vom 29. April 2009, 19:25

Die Happy / Bitter To Better (GUN 225, BMG 82876 75738 2) (GER2005) CD 01

Benutztes Laufwerk : HL-DT-STDVDRAM GSA-H12L Adapter: 0 ID: 1

Lesemodus : Sicher
Benutze Accurate Stream : Ja
Audio Puffer abgeschaltet : Nein
Benutze C2 Fehlerinformationen : Nein

Leseoffset Korrektur : 667
Überlesen in das Lead-In und Lead-Out : Nein
Fülle fehlende Offsetsample mit Stille auf : Ja
Lösche führende und nachfolgende stille Blöcke : Nein
Null Samples gehen in CRC Berechnungen ein : Ja
Benutzte Schnittstelle : Natürliche Win32 Schnittstelle für Win NT/2000/XP
Pausenbehandlung : Hinter dem vorigen Track angehängt

Benutztes Ausgabeformat : Benutzerdefinierter Komprimierer
Gewählte Bitrate : 1024 kBit/s
Qualität : Hoch
Füge ID3 Tag hinzu : Ja
Kommandozeilen Komprimierer : C:\Programme\FLAC\flac.exe
Zusätzliche Kommandozeilenoptionen : -5 -T "Artist=%a" -T "Title=%t" -T "Album=%g" -T "Date=%y" -T "Tracknumber=%n" -T "Genre=%m" %s -o %d


TOC der ausgelesenen CD

Track | Start | Länge | Startsektor | Endsektor
–––––––––––––––––––––––––––-
1 | 0:00.00 | 3:02.54 | 0 | 13703
2 | 3:02.54 | 4:29.72 | 13704 | 33950
3 | 7:32.51 | 3:45.64 | 33951 | 50889
4 | 11:18.40 | 4:23.11 | 50890 | 70625
5 | 15:41.51 | 3:36.29 | 70626 | 86854
6 | 19:18.05 | 3:43.70 | 86855 | 103649
7 | 23:02.00 | 3:32.62 | 103650 | 119611
8 | 26:34.62 | 3:58.64 | 119612 | 137525
9 | 30:33.51 | 3:51.42 | 137526 | 154892
10 | 34:25.18 | 2:51.24 | 154893 | 167741
11 | 37:16.42 | 4:06.51 | 167742 | 186242
12 | 41:23.18 | 3:35.69 | 186243 | 202436
13 | 44:59.12 | 3:56.34 | 202437 | 220170
14 | 48:55.46 | 5:25.62 | 220171 | 244607
15 | 54:21.33 | 5:01.17 | 244608 | 267199
16 | 59:22.50 | 4:13.24 | 267200 | 286198
17 | 63:35.74 | 5:36.18 | 286199 | 311416


Track 1

Dateiname V:\INCOMING\LOSSLESS\ZZZ-EAC\01 Bitter To Better.wav

Pausenlänge 0:00:02.00

Spitzenpegel 98.7 %
Track Qualität 100.0 %
Test CRC D52C084D
Kopie CRC D52C084D
Track ist nicht enthalten in der AccurateRip Datenbank
Kopie OK

Track 2

Dateiname V:\INCOMING\LOSSLESS\ZZZ-EAC\02 In Love.wav

Spitzenpegel 95.9 %
Track Qualität 99.9 %
Test CRC 3C70BD0C
Kopie CRC 3C70BD0C
Track ist nicht enthalten in der AccurateRip Datenbank
Kopie OK

Track 3

Dateiname V:\INCOMING\LOSSLESS\ZZZ-EAC\03 Big Big Trouble.wav

Spitzenpegel 98.7 %
Track Qualität 100.0 %
Test CRC 209F33F8
Kopie CRC 209F33F8
Track ist nicht enthalten in der AccurateRip Datenbank
Kopie OK

Track 4

Dateiname V:\INCOMING\LOSSLESS\ZZZ-EAC\04 Perfect.wav

Spitzenpegel 98.7 %
Track Qualität 100.0 %
Test CRC 7A9BE4B4
Kopie CRC 7A9BE4B4
Track ist nicht enthalten in der AccurateRip Datenbank
Kopie OK

Track 5

Dateiname V:\INCOMING\LOSSLESS\ZZZ-EAC\05 Love To Hate You.wav

Spitzenpegel 98.7 %
Track Qualität 100.0 %
Test CRC 64035433
Kopie CRC 64035433
Track ist nicht enthalten in der AccurateRip Datenbank
Kopie OK

Track 6

Dateiname V:\INCOMING\LOSSLESS\ZZZ-EAC\06 I Am.wav

Spitzenpegel 98.7 %
Track Qualität 100.0 %
Test CRC 12583BD6
Kopie CRC 12583BD6
Track ist nicht enthalten in der AccurateRip Datenbank
Kopie OK

Track 7

Dateiname V:\INCOMING\LOSSLESS\ZZZ-EAC\07 Blood Cell Traffic Jam.wav

Pausenlänge 0:00:00.26

Spitzenpegel 99.8 %
Track Qualität 99.9 %
Test CRC 9D7C0894
Kopie CRC 9D7C0894
Track ist nicht enthalten in der AccurateRip Datenbank
Kopie OK

Track 8

Dateiname V:\INCOMING\LOSSLESS\ZZZ-EAC\08 Inside.wav

Pausenlänge 0:00:01.08

Spitzenpegel 98.7 %
Track Qualität 100.0 %
Test CRC 9E933330
Kopie CRC 9E933330
Track ist nicht enthalten in der AccurateRip Datenbank
Kopie OK

Track 9

Dateiname V:\INCOMING\LOSSLESS\ZZZ-EAC\09 If I Could Fly.wav

Spitzenpegel 98.7 %
Track Qualität 100.0 %
Test CRC 5F74074E
Kopie CRC 5F74074E
Track ist nicht enthalten in der AccurateRip Datenbank
Kopie OK

Track 10

Dateiname V:\INCOMING\LOSSLESS\ZZZ-EAC\10 Don´t Be Scared.wav

Pausenlänge 0:00:00.30

Spitzenpegel 98.7 %
Track Qualität 99.9 %
Test CRC 69EFE811
Kopie CRC 69EFE811
Track ist nicht enthalten in der AccurateRip Datenbank
Kopie OK

Track 11

Dateiname V:\INCOMING\LOSSLESS\ZZZ-EAC\11 Stranded.wav

Pausenlänge 0:00:02.02

Spitzenpegel 98.7 %
Track Qualität 100.0 %
Test CRC 701070D1
Kopie CRC 701070D1
Track ist nicht enthalten in der AccurateRip Datenbank
Kopie OK

Track 12

Dateiname V:\INCOMING\LOSSLESS\ZZZ-EAC\12 Neon.wav

Pausenlänge 0:00:01.70

Spitzenpegel 98.7 %
Track Qualität 100.0 %
Test CRC 5BAA4823
Kopie CRC 5BAA4823
Track ist nicht enthalten in der AccurateRip Datenbank
Kopie OK

Track 13

Dateiname V:\INCOMING\LOSSLESS\ZZZ-EAC\13 Cancer.wav

Pausenlänge 0:00:01.08

Spitzenpegel 98.7 %
Track Qualität 99.9 %
Test CRC EF3C30E1
Kopie CRC EF3C30E1
Track ist nicht enthalten in der AccurateRip Datenbank
Kopie OK

Track 14

Dateiname V:\INCOMING\LOSSLESS\ZZZ-EAC\14 Cry For More.wav

Pausenlänge 0:00:00.06

Spitzenpegel 99.8 %
Track Qualität 100.0 %
Test CRC E96A694E
Kopie CRC E96A694E
Track ist nicht enthalten in der AccurateRip Datenbank
Kopie OK

Track 15

Dateiname V:\INCOMING\LOSSLESS\ZZZ-EAC\15 5 pm.wav

Spitzenpegel 99.8 %
Track Qualität 100.0 %
Test CRC F76C3021
Kopie CRC F76C3021
Track ist nicht enthalten in der AccurateRip Datenbank
Kopie OK

Track 16

Dateiname V:\INCOMING\LOSSLESS\ZZZ-EAC\16 Goodbye.wav

Spitzenpegel 99.8 %
Track Qualität 100.0 %
Test CRC F3A91321
Kopie CRC F3A91321
Track ist nicht enthalten in der AccurateRip Datenbank
Kopie OK

Track 17

Dateiname V:\INCOMING\LOSSLESS\ZZZ-EAC\17 Wrong.wav

Spitzenpegel 99.8 %
Track Qualität 100.0 %
Test CRC 3379A119
Kopie CRC 3379A119
Track ist nicht enthalten in der AccurateRip Datenbank
Kopie OK


Keiner der Tracks ist in der AccurateRip Datenbank vorhanden

Keine Fehler aufgetreten

Ende des Statusreports


Exact Audio Copy V0.99 prebeta 4 from 23. January 2008

EAC Auslese-Logdatei vom 29. April 2009, 20:52

Die Happy / Bitter To Better (GUN 225, BMG 82876 75738 2) (GER2005) CD 02

Benutztes Laufwerk : HL-DT-STDVDRAM GSA-H12L Adapter: 0 ID: 1

Lesemodus : Sicher
Benutze Accurate Stream : Ja
Audio Puffer abgeschaltet : Nein
Benutze C2 Fehlerinformationen : Nein

Leseoffset Korrektur : 667
Überlesen in das Lead-In und Lead-Out : Nein
Fülle fehlende Offsetsample mit Stille auf : Ja
Lösche führende und nachfolgende stille Blöcke : Nein
Null Samples gehen in CRC Berechnungen ein : Ja
Benutzte Schnittstelle : Natürliche Win32 Schnittstelle für Win NT/2000/XP
Pausenbehandlung : Hinter dem vorigen Track angehängt

Benutztes Ausgabeformat : Benutzerdefinierter Komprimierer
Gewählte Bitrate : 1024 kBit/s
Qualität : Hoch
Füge ID3 Tag hinzu : Ja
Kommandozeilen Komprimierer : C:\Programme\FLAC\flac.exe
Zusätzliche Kommandozeilenoptionen : -5 -T "Artist=%a" -T "Title=%t" -T "Album=%g" -T "Date=%y" -T "Tracknumber=%n" -T "Genre=%m" %s -o %d


TOC der ausgelesenen CD

Track | Start | Länge | Startsektor | Endsektor
–––––––––––––––––––––––––––-
1 | 0:00.00 | 5:03.43 | 0 | 22767
2 | 5:03.43 | 5:11.17 | 22768 | 46109
3 | 10:14.60 | 5:08.73 | 46110 | 69282
4 | 15:23.58 | 5:05.13 | 69283 | 92170
5 | 20:28.71 | 3:57.47 | 92171 | 109992
6 | 24:26.43 | 3:40.30 | 109993 | 126522
7 | 28:06.73 | 4:51.33 | 126523 | 148380
8 | 32:58.31 | 5:51.39 | 148381 | 174744
9 | 38:49.70 | 16:48.66 | 174745 | 250410


Track 1

Dateiname V:\INCOMING\LOSSLESS\ZZZ-EAC\01 Big Boy.wav

Pausenlänge 0:00:02.00

Spitzenpegel 99.0 %
Track Qualität 100.0 %
Test CRC EA342322
Kopie CRC EA342322
Track ist nicht enthalten in der AccurateRip Datenbank
Kopie OK

Track 2

Dateiname V:\INCOMING\LOSSLESS\ZZZ-EAC\02 Violent Dreams.wav

Spitzenpegel 99.0 %
Track Qualität 100.0 %
Test CRC 3B680B22
Kopie CRC 3B680B22
Track ist nicht enthalten in der AccurateRip Datenbank
Kopie OK

Track 3

Dateiname V:\INCOMING\LOSSLESS\ZZZ-EAC\03 1.000.000 Times.wav

Spitzenpegel 99.0 %
Track Qualität 100.0 %
Test CRC 72194310
Kopie CRC 72194310
Track ist nicht enthalten in der AccurateRip Datenbank
Kopie OK

Track 4

Dateiname V:\INCOMING\LOSSLESS\ZZZ-EAC\04 Slow Day.wav

Spitzenpegel 99.0 %
Track Qualität 99.9 %
Test CRC 789917B8
Kopie CRC 789917B8
Track ist nicht enthalten in der AccurateRip Datenbank
Kopie OK

Track 5

Dateiname V:\INCOMING\LOSSLESS\ZZZ-EAC\05 Standing Strong.wav

Spitzenpegel 99.0 %
Track Qualität 100.0 %
Test CRC D999E81F
Kopie CRC D999E81F
Track ist nicht enthalten in der AccurateRip Datenbank
Kopie OK

Track 6

Dateiname V:\INCOMING\LOSSLESS\ZZZ-EAC\06 Otazky.wav

Spitzenpegel 99.0 %
Track Qualität 100.0 %
Test CRC B7CA63A9
Kopie CRC B7CA63A9
Track ist nicht enthalten in der AccurateRip Datenbank
Kopie OK

Track 7

Dateiname V:\INCOMING\LOSSLESS\ZZZ-EAC\07 Like A Flower.wav

Spitzenpegel 99.0 %
Track Qualität 100.0 %
Test CRC 696E4C59
Kopie CRC 696E4C59
Track ist nicht enthalten in der AccurateRip Datenbank
Kopie OK

Track 8

Dateiname V:\INCOMING\LOSSLESS\ZZZ-EAC\08 Everyday´s A Weekend.wav

Spitzenpegel 99.0 %
Track Qualität 100.0 %
Test CRC AB76BFF1
Kopie CRC AB76BFF1
Track ist nicht enthalten in der AccurateRip Datenbank
Kopie OK

Track 9

Dateiname V:\INCOMING\LOSSLESS\ZZZ-EAC\09 Not That Kind Of Girl.wav

Spitzenpegel 99.0 %
Track Qualität 100.0 %
Test CRC 965B4ACA
Kopie CRC 965B4ACA
Track ist nicht enthalten in der AccurateRip Datenbank
Kopie OK


Keiner der Tracks ist in der AccurateRip Datenbank vorhanden

Keine Fehler aufgetreten

Ende des Statusreports


CD Info:

Die Happy - Bitter To Better


Label: GUN Records (2), Sony BMG Music Entertainment (Germany)
Catalog#: GUN 225, 82876 75738 2
Format: 2 x CD, Album
Country: Germany
Released: 11 Nov 2005
Genre: Rock
Style: Alternative Rock
Notes: Special double-album edition. Tracks 1.12 & 1.13 are bonustracks. Tracks 1.14 to 2.09 are bonus unplugged tracks & were released in 2005 as the separate album titled "Four And More Unplugged". Unplugged tracks were recorded live at Ulmer Zelt 22-05-2004.


Tracklisting:
1.01 Bitter To Better (3:02)
1.02 In Love (4:30)
1.03 Big Big Trouble (3:45)
1.04 Perfect (4:22)
1.05 Love To Hate You (3:36)
1.06 I Am (3:43)
1.07 Blood Cell Traffic Jam (3:31)
1.08 Inside (3:58)
1.09 If I Could Fly (3:51)
1.10 Don't Be Scared (2:49)
1.11 Stranded (4:04)
1.12 Neon (3:34)
1.13 Cancer (3:58)
1.14 Cry For More (5:26)
1.15 5 pm (5:01)
1.16 Goodbye (4:14)
1.17 Wrong (5:24)
2.01 Big Boy (4:59)
2.02 Violent Dreams (5:11)
2.03 1.000.000 Times (5:09)
2.04 Slow Day (5:05)
2.05 Standing Strong (3:58)
2.06 Otazky (3:40)
2.07 Like A Flower (4:51)
2.08 Everyday's A Weekend (5:51)
2.09 Not That Kind Of Girl (16:49)

Band Info:

Die Happy is a German-based rock/pop/alternative band from Ulm. The group was founded in 1993 by Czech singer Marta Jandová and Thorsten Mewes. Even though the band is based in Germany, their songs are written and performed almost exclusively in English.

Jandová provides additional vocals on the song "Undivided" from Dog Eat Dog's 2006 release, Walk With Me, "Horizont" from In Extremo's album Mein Rasend Herz and "Wie weit/How far" from Apocalyptica's self-titled album. She is also featured on "Träumst du" from OOMPH!'s album GlaubeLiebeTod, the winning entry for the 2007 Bundesvision Song Contest. wikipedia

Format:

Flac (Compression Level 8)

Links:

[rapidshare.com/200 MB Splits]

via secured.in

http://secured.in/download-322069-9279d18a.html

via stealth.to
incl. .dlc, .ccf, .rsdf

http://stealth.to/?id=06w0vvdpr35aew4ncfu7c6zurmrzz0hrv4


Password:

finest-hq-audio



MIRRORS ARE WELCOME BUT NOT ON RAPIDSHARE! Thanks.

If you have problems getting the links from the encrypters, please check if a pop-up is blocked or java is disabled. Both must be allowed!

If you have still problems after that, please write me a message - also if something happens to be down. Thanks.



––> I SUGGEST TO ALL WHO HAVE PROBLEMS USING SECURED.IN or want to download automated with the rsdf (AND ALL OTHERS TOO…) <––
––> TO USE THE FREE DOWNLOAD MANAGER "JDOWNLOADER" <––
––> (DOWNLOAD HERE: http://jdownloader.org/news?lng=en) <––
––> THIS ONE CAN ALSO HANDLE THE RSDF FILE AND DECRYPTS LINK ENCRYPTER PAGES AUTOMATICALLY! <––
––> BELIEVE IN ME, IT WILL MAKE RAPIDSHARE MUCH EASIER! <––