Subcategories

V.A. - It happened at the neighborhood by Vassilis Tsitsanis (1995)

Posted By: Speedyclick
V.A. - It happened at the neighborhood by Vassilis Tsitsanis (1995)

V.A. - It happened at the neighborhood by Vassilis Tsitsanis (1995)
EAC Rip | FLAC (image & cue & log) & mp3 @ 320 kbps | tracks: 15 | Scans | 48:23 | ~ 292 Mb & 137 Mb
Label: PolyGram | 5% recovery record | Original recordings | World, rebetika songs

Rare CD released in 1995 with the first issue of the greek musical magazine "Difono", containing 15 authentic recordings of rebetika songs written by the legendary greek composer Vassilis Tsitsanis. You will find both classic and unexpected interpretations of well known rebetika songs. A collector's item in lossless. Enjoy.

TRACKLIST
01. Vassilis Tsitsanis - Solo bouzouki minore
02. Vassilis Tsitsanis - Tonight you are amazing (Apopse kanis mpam)
03. Marika Ninou - I was born to suffer (Genithika gia na pono)
04. Vassilis Tsitsanis - Zaira
05. Marika Ninou & Vassilis Tsitsanis - The little crabs (Ta kavourakia)
06. Yiannis Kiriazis - Bohemienne (Boemissa)
07. Anna Chrisafi - Tsolias
08. Nikos Xanthopoulos - At the narrow streets of Trikala (Sta Trikala sta dio stena)
09. Marinella - While I have many troubles (Mes' tin poli skotoura mou)
10. Haroula Lampraki - The tavern's clock (Tis tavernas to roloi)
11. Giorgos Zambetas - When it happens in the neighborhood (Otan simvi sta perix)
12. Melina Merkouri - La fumee des cigarettes
13. Melina Merkouri & Vassilis Tsitsanis - Cloudy Sunday (Sinefiasmeni Kiriaki)
14. Chorus of Kalamata - The ungrateful woman (I aharisti)
15. Arleta - Magic nights (Nihtes magikes)

Exact Audio Copy V1.0 beta 3 from 29. August 2011

EAC extraction logfile from 17. January 2013, 3:51

Various Artists / Synevi sta perix

Used drive : HL-DT-STDVDRAM GH10N Adapter: 1 ID: 1

Read mode : Secure
Utilize accurate stream : Yes
Defeat audio cache : Yes
Make use of C2 pointers : No

Read offset correction : 667
Overread into Lead-In and Lead-Out : No
Fill up missing offset samples with silence : Yes
Delete leading and trailing silent blocks : No
Null samples used in CRC calculations : Yes
Used interface : Native Win32 interface for Win NT & 2000

Used output format : User Defined Encoder
Selected bitrate : 1024 kBit/s
Quality : High
Add ID3 tag : Yes
Command line compressor : C:\Program Files\Exact Audio Copy New\Flac\flac.exe
Additional command line options : -V -5 -T "artist=%artist%" -T "title=%title%" -T "album=%albumtitle%" -T "tracknumber=%tracknr2%" -T "genre=%genre%" -5 %source%


TOC of the extracted CD

Track | Start | Length | Start sector | End sector
––––––––––––––––––––––––––––-
1 | 0:00.00 | 4:39.37 | 0 | 20961
2 | 4:39.37 | 2:53.35 | 20962 | 33971
3 | 7:32.72 | 3:45.68 | 33972 | 50914
4 | 11:18.65 | 3:09.25 | 50915 | 65114
5 | 14:28.15 | 3:09.50 | 65115 | 79339
6 | 17:37.65 | 3:41.07 | 79340 | 95921
7 | 21:18.72 | 1:36.43 | 95922 | 103164
8 | 22:55.40 | 1:56.22 | 103165 | 111886
9 | 24:51.62 | 3:27.43 | 111887 | 127454
10 | 28:19.30 | 3:37.40 | 127455 | 143769
11 | 31:56.70 | 2:48.32 | 143770 | 156401
12 | 34:45.27 | 3:00.13 | 156402 | 169914
13 | 37:45.40 | 4:04.62 | 169915 | 188276
14 | 41:50.27 | 3:24.70 | 188277 | 203646
15 | 45:15.22 | 3:08.33 | 203647 | 217779


Range status and errors

Selected range

Filename S:\MUSIC\From Mytog\ΔΙΦΩΝΟ\001 Βασίλης Τσιτσάνης - Συνέβη στα πέριξ (Flac)\Various Artists - Synevi sta perix.wav

Peak level 95.7 %
Extraction speed 2.0 X
Range quality 100.0 %
Test CRC 64CC7E69
Copy CRC 64CC7E69
Copy OK

No errors occurred


AccurateRip summary

Track 1 not present in database
Track 2 not present in database
Track 3 not present in database
Track 4 not present in database
Track 5 not present in database
Track 6 not present in database
Track 7 not present in database
Track 8 not present in database
Track 9 not present in database
Track 10 not present in database
Track 11 not present in database
Track 12 not present in database
Track 13 not present in database
Track 14 not present in database
Track 15 not present in database

None of the tracks are present in the AccurateRip database

End of status report

–– CUETools DB Plugin V2.1.3

[CTDB TOCID: tcFwKUqh9uxuLA6mv72fohmO1to-] disk not present in database, Submit result: tcFwKUqh9uxuLA6mv72fohmO1to- has been uploaded


==== Log checksum 7FAE45FE6EDAD04961237344B72E9FF054FCA3E4782CEEBBA4053599903F0D39 ====