Subcategories

Donald Byrd - Early Byrd: The Best of the Jazz Soul Years (1993)

Posted By: Bezz
Donald Byrd - Early Byrd: The Best of the Jazz Soul Years (1993)

Donald Byrd - Early Byrd: The Best of the Jazz Soul Years (1993)
Jazz | EAC rip | APE + CUE + LOG | Full Scans | 370 Mb
Label ~ Blue Note Records

Early Byrd: The Best of the Jazz Soul Years contains a selection of nine tracks from Donald Byrd's mid-'60s recordings, bypassing his funkier fusions of the late '60s and early '70s. These songs – including such numbers as "Slow Drag," "Jellyroll," "Mustang," "Blackjack" and "The Dude" – feature the trumpeter at his grittiest and funkiest. Fans of his early hard bop years will still find enough improvisation here to make it interesting, while latter-day fans will find enough grooves. It's a solid introduction to one of Byrd's most prolific periods. ~ Review by Stephen Thomas Erlewine

Tracks List

01. Slow Drag (Byrd)
02. West of Pecos (Kyner)
03. Books Bossa (Walton/Booker)
04. Jellyroll (Kyner)
05. Mustang (Kyner)
06. Blackjack (Byrd)
07. The Weasil (Hendricks)
08. The Dude (Byrd)
09. The Emperor (Byrd)

Exact Audio Copy V0.99 prebeta 4 from 23. January 2008
EAC extraction logfile from 30. March 2009, 17:58
Donald Byrd / Early Byrd: The Best of the Jazz Soul Years
Used drive : HL-DT-STDVD-RAM GH22NP20 Adapter: 1 ID: 1
Read mode : Secure
Utilize accurate stream : Yes
Defeat audio cache : Yes
Make use of C2 pointers : No
Read offset correction : 102
Overread into Lead-In and Lead-Out : No
Fill up missing offset samples with silence : Yes
Delete leading and trailing silent blocks : No
Null samples used in CRC calculations : Yes
Used interface : Installed external ASPI interface
Used output format : Internal WAV Routines
Sample format : 44.100 Hz; 16 Bit; Stereo
TOC of the extracted CD
Track | Start | Length | Start sector | End sector
––––––––––––––––––––––––––––-
1 | 0:00.32 | 9:45.08 | 32 | 43914
2 | 9:45.40 | 5:20.60 | 43915 | 67974
3 | 15:06.25 | 6:51.65 | 67975 | 98864
4 | 21:58.15 | 5:19.02 | 98865 | 122791
5 | 27:17.17 | 8:27.18 | 122792 | 160834
6 | 35:44.35 | 6:16.67 | 160835 | 189101
7 | 42:01.27 | 8:58.43 | 189102 | 229494
8 | 50:59.70 | 7:50.17 | 229495 | 264761
9 | 58:50.12 | 15:18.38 | 264762 | 333649
Range status and errors
Selected range
Filename C:\Documents and Settings\Proprietario.RT\Desktop\R\Donald Byrd - Early Byrd - The Best of the Soul Jazz Years\Donald Byrd - Early Byrd The Best of the Jazz Soul Years.wav
Peak level 81.0 %
Range quality 99.9 %
Copy CRC 15FED345
Copy OK
No errors occurred
End of status report


Donald Byrd - Early Byrd: The Best of the Jazz Soul Years (1993)


Donald Byrd - Early Byrd: The Best of the Jazz Soul Years (1993)


FILESERVE links

Part 1
Part 2


HOTFILE links

Part 1
Part 2


BITSHARE links

Part 1
Part 2

Welcome to my blog for more wonderful music


PLEASE DO NOT PROVIDE MIRROR LINKS!