Subcategories

Don Ellis - Giants Of Jazz (1995) {Sarabandas}

Posted By: ruskaval
Don Ellis - Giants Of Jazz (1995) {Sarabandas}

Don Ellis - Giants Of Jazz (1995) {Sarabandas}
EAC rip (secure mode) | FLAC (tracks)+CUE+LOG -> 369 Mb | MP3 @320 -> 173 Mb
Full Artwork @ 600 dpi (tiff) -> 46 Mb | 5% repair rar
© 1995 Sarabandas | CD 53262
Jazz / Post Bop / Trumpet

The photograph on the cover might throw some people off, but this album is a compilation of songs from Don's small group dates from the early 60s, "How Time Passes," "Out Of Nowhere," and "Essence." The packaging is kind of generic, but the CD was issued by the Giants of Jazz label with the good intention that more of Don's recordings should be available to the public…a sentiment with which I couldn't agree more. I would recommend seeking out the original albums to get the full program of each, but since "Essence" has been out of print for decades, the four tracks pulled from that album are worth the bargain price of this CD. The booklet includes a brief timeline of Don's career.

Personnel:
Don Ellis – Trumpet
Jaki Byard - Piano, Alto Sax
Paul Bley – Piano
Ron Carter – Bass
Steve Swallow – Bass
Gary Peacock – Bass
Charlie Persip – Drums
Nick Martins – Drums

tracklist:
01. I'll Remember April
02. Sweet And Lovely
03. Out Of Nowhere
04. All The Things You Are
05. You Stepped Out Of A Dream
06. My Funny Valentine
07. I Love You
08. Just One Of Those Things
09. Johnny Come Lately
10. Angel Eyes
11. Lover
12. Form
13. Sallie
14. How Time Passes
15. A Simplex One

Don Ellis - Giants Of Jazz (1995) {Sarabandas}

Don Ellis - Giants Of Jazz (1995) {Sarabandas}

Exact Audio Copy V1.0 beta 3 from 29. August 2011

EAC extraction logfile from 20. January 2013, 15:10

Don Ellis / Giants Of Jazz

Used drive : ATAPI iHAS124 B Adapter: 4 ID: 0

Read mode : Secure
Utilize accurate stream : Yes
Defeat audio cache : Yes
Make use of C2 pointers : No

Read offset correction : 6
Overread into Lead-In and Lead-Out : No
Fill up missing offset samples with silence : Yes
Delete leading and trailing silent blocks : No
Null samples used in CRC calculations : Yes
Used interface : Native Win32 interface for Win NT & 2000
Gap handling : Appended to previous track

Used output format : User Defined Encoder
Selected bitrate : 1024 kBit/s
Quality : High
Add ID3 tag : No
Command line compressor : C:\Program Files (x86)\FLAC\flac.exe
Additional command line options : -8 -V -T "ARTIST=%artist%" -T "TITLE=%title%" -T "ALBUM=%albumtitle%" -T "DATE=%year%" -T "TRACKNUMBER=%tracknr%" -T "GENRE=%genre%" -T "PERFORMER=%albuminterpret%" -T "COMPOSER=%composer%" %haslyrics%–tag-from-file=LYRICS="%lyricsfile%"%haslyrics% -T "ALBUMARTIST=%albumartist%" -T "DISCNUMBER=%cdnumber%" -T "TOTALDISCS=%totalcds%" -T "TOTALTRACKS=%numtracks%" -T "COMMENT=%comment%" %source% -o %dest%


TOC of the extracted CD

Track | Start | Length | Start sector | End sector
––––––––––––––––––––––––––––-
1 | 0:00.32 | 3:31.30 | 32 | 15886
2 | 3:31.62 | 6:09.35 | 15887 | 43596
3 | 9:41.22 | 3:42.53 | 43597 | 60299
4 | 13:24.00 | 6:06.70 | 60300 | 87819
5 | 19:30.70 | 3:43.50 | 87820 | 104594
6 | 23:14.45 | 4:26.47 | 104595 | 124591
7 | 27:41.17 | 4:37.25 | 124592 | 145391
8 | 32:18.42 | 3:39.40 | 145392 | 161856
9 | 35:58.07 | 4:54.10 | 161857 | 183916
10 | 40:52.17 | 4:19.65 | 183917 | 203406
11 | 45:12.07 | 3:24.63 | 203407 | 218769
12 | 48:36.70 | 10:08.50 | 218770 | 264419
13 | 58:45.45 | 4:38.00 | 264420 | 285269
14 | 63:23.45 | 6:28.00 | 285270 | 314369
15 | 69:51.45 | 4:15.50 | 314370 | 333544


Track 1

Filename C:\EAC\Don Ellis - Giants Of Jazz (1995) {Sarabandas}\01 - I'll Remember April.wav

Pre-gap length 0:00:02.42

Peak level 81.7 %
Extraction speed 3.7 X
Track quality 100.0 %
Test CRC 115EAADA
Copy CRC 115EAADA
Track not present in AccurateRip database
Copy OK

Track 2

Filename C:\EAC\Don Ellis - Giants Of Jazz (1995) {Sarabandas}\02 - Sweet And Lovely.wav

Peak level 76.8 %
Extraction speed 4.6 X
Track quality 100.0 %
Test CRC C35F5BD4
Copy CRC C35F5BD4
Track not present in AccurateRip database
Copy OK

Track 3

Filename C:\EAC\Don Ellis - Giants Of Jazz (1995) {Sarabandas}\03 - Out Of Nowhere.wav

Peak level 79.8 %
Extraction speed 4.7 X
Track quality 100.0 %
Test CRC 99E27183
Copy CRC 99E27183
Track not present in AccurateRip database
Copy OK

Track 4

Filename C:\EAC\Don Ellis - Giants Of Jazz (1995) {Sarabandas}\04 - All Things You Are.wav

Peak level 88.5 %
Extraction speed 5.4 X
Track quality 100.0 %
Test CRC 161C0509
Copy CRC 161C0509
Track not present in AccurateRip database
Copy OK

Track 5

Filename C:\EAC\Don Ellis - Giants Of Jazz (1995) {Sarabandas}\05 - You Stepped Out Of A Dream.wav

Peak level 88.9 %
Extraction speed 5.4 X
Track quality 100.0 %
Test CRC 1A04D58E
Copy CRC 1A04D58E
Track not present in AccurateRip database
Copy OK

Track 6

Filename C:\EAC\Don Ellis - Giants Of Jazz (1995) {Sarabandas}\06 - My Funny Valentine.wav

Peak level 73.5 %
Extraction speed 5.8 X
Track quality 100.0 %
Test CRC 989BA3D5
Copy CRC 989BA3D5
Track not present in AccurateRip database
Copy OK

Track 7

Filename C:\EAC\Don Ellis - Giants Of Jazz (1995) {Sarabandas}\07 - I Love You.wav

Peak level 84.6 %
Extraction speed 6.2 X
Track quality 100.0 %
Test CRC 69A832E1
Copy CRC 69A832E1
Track not present in AccurateRip database
Copy OK

Track 8

Filename C:\EAC\Don Ellis - Giants Of Jazz (1995) {Sarabandas}\08 - Just One Of Those Things.wav

Peak level 61.4 %
Extraction speed 6.2 X
Track quality 100.0 %
Test CRC DFC50605
Copy CRC DFC50605
Track not present in AccurateRip database
Copy OK

Track 9

Filename C:\EAC\Don Ellis - Giants Of Jazz (1995) {Sarabandas}\09 - Johnny Come Lately.wav

Peak level 70.4 %
Extraction speed 5.5 X
Track quality 99.9 %
Test CRC 199B079F
Copy CRC 199B079F
Accurately ripped (confidence 1) [09CACFA2] (AR v1)
Copy OK

Track 10

Filename C:\EAC\Don Ellis - Giants Of Jazz (1995) {Sarabandas}\10 - Angel Eyes.wav

Peak level 81.5 %
Extraction speed 6.8 X
Track quality 100.0 %
Test CRC 684950D4
Copy CRC 684950D4
Accurately ripped (confidence 1) [0C853ABD] (AR v1)
Copy OK

Track 11

Filename C:\EAC\Don Ellis - Giants Of Jazz (1995) {Sarabandas}\11 - Lover.wav

Peak level 100.0 %
Extraction speed 5.3 X
Track quality 99.9 %
Test CRC 00A6D543
Copy CRC 00A6D543
Accurately ripped (confidence 1) [C120E45B] (AR v1)
Copy OK

Track 12

Filename C:\EAC\Don Ellis - Giants Of Jazz (1995) {Sarabandas}\12 - Form.wav

Peak level 84.3 %
Extraction speed 8.0 X
Track quality 100.0 %
Test CRC CBCFF0CB
Copy CRC CBCFF0CB
Accurately ripped (confidence 1) [A408D314] (AR v1)
Copy OK

Track 13

Filename C:\EAC\Don Ellis - Giants Of Jazz (1995) {Sarabandas}\13 - Sallie.wav

Peak level 85.2 %
Extraction speed 7.8 X
Track quality 100.0 %
Test CRC 42BB45B9
Copy CRC 42BB45B9
Accurately ripped (confidence 1) [5520A476] (AR v1)
Copy OK

Track 14

Filename C:\EAC\Don Ellis - Giants Of Jazz (1995) {Sarabandas}\14 - How Time Passes.wav

Peak level 99.3 %
Extraction speed 8.3 X
Track quality 100.0 %
Test CRC FFD1FF26
Copy CRC FFD1FF26
Accurately ripped (confidence 1) [A58EEE78] (AR v1)
Copy OK

Track 15

Filename C:\EAC\Don Ellis - Giants Of Jazz (1995) {Sarabandas}\15 - A Simplex One.wav

Peak level 85.6 %
Extraction speed 6.6 X
Track quality 99.9 %
Test CRC FE62A234
Copy CRC FE62A234
Accurately ripped (confidence 1) [697CC803] (AR v1)
Copy OK


7 track(s) accurately ripped
8 track(s) not present in the AccurateRip database

Some tracks could not be verified as accurate

No errors occurred

End of status report

==== Log checksum 836C5CB7A9AA35444FC981F8BD9E9DFE7CF421D9443A9E430ABE920EC50F1DAC ====