Subcategories

Various Composers - Joachim Dorfmüller - Sächsische Orgelmusik / Saxon Organ Music [MDG L 3330] {1989}

Posted By: luckburz
Various Composers - Joachim Dorfmüller - Sächsische Orgelmusik / Saxon Organ Music [MDG L 3330] {1989}

Various Composers - Sächsische Orgelmusik / Saxon Organ Music
Joachim Dorfmüller auf Silbermann-Orgeln im Elsaß / on Alsace Silbermann organs
EAC+LOG+CUE | FLAC: 296 MB | Full Artwork | 5% Recovery Info
Label/Cat#: MDG L 3330 | Country/Year: Germany 1989
Genre: Classical | Style: Organ

MD5 [X] CUE [X] LOG [X] INFO TEXT [X] ARTWORK [X]

selfrip [X] not my rip []

Various Composers - Joachim Dorfmüller - Sächsische Orgelmusik / Saxon Organ Music [MDG L 3330] {1989}


Exact Audio Copy V1.0 beta 3 from 29. August 2011

EAC extraction logfile from 19. September 2012, 15:12

Joachim Dorfmüller / Sächsische Orgelmusik

Used drive : PIONEER BD-RW BDR-206 Adapter: 0 ID: 2

Read mode : Secure
Utilize accurate stream : Yes
Defeat audio cache : Yes
Make use of C2 pointers : No

Read offset correction : 667
Overread into Lead-In and Lead-Out : No
Fill up missing offset samples with silence : Yes
Delete leading and trailing silent blocks : No
Null samples used in CRC calculations : Yes
Used interface : Native Win32 interface for Win NT & 2000

Used output format : User Defined Encoder
Selected bitrate : 1024 kBit/s
Quality : High
Add ID3 tag : Yes
Command line compressor : C:\Program Files\FLAC\flac.exe
Additional command line options : -5 -T "Artist=%artist%" -T "Title=%title%" -T "Album=%albumtitle%" -T "Date=%year%" -T "Tracknumber=%tracknr%" -T "Genre=%genre%" %source% -o %dest%


TOC of the extracted CD

Track | Start | Length | Start sector | End sector
––––––––––––––––––––––––––––-
1 | 0:00.33 | 13:02.17 | 33 | 58699
2 | 13:02.50 | 2:59.35 | 58700 | 72159
3 | 16:02.10 | 2:56.33 | 72160 | 85392
4 | 18:58.43 | 1:34.60 | 85393 | 92502
5 | 20:33.28 | 5:56.30 | 92503 | 119232
6 | 26:29.58 | 8:01.10 | 119233 | 155317
7 | 34:30.68 | 7:26.22 | 155318 | 188789
8 | 41:57.15 | 1:34.60 | 188790 | 195899
9 | 43:32.00 | 3:56.73 | 195900 | 213672
10 | 47:28.73 | 3:05.52 | 213673 | 227599
11 | 50:34.50 | 2:25.15 | 227600 | 238489
12 | 52:59.65 | 1:02.35 | 238490 | 243174
13 | 54:02.25 | 0:50.08 | 243175 | 246932
14 | 54:52.33 | 2:52.15 | 246933 | 259847
15 | 57:44.48 | 16:47.00 | 259848 | 335372


Range status and errors

Selected range

Filename F:\=== VINYL RIPS ===\=== EAC===\X FRESH RIP\Joachim Dorfmüller - Sächsische Orgelmusik.wav

Peak level 99.4 %
Extraction speed 1.4 X
Range quality 100.0 %
Test CRC 07456F3E
Copy CRC 07456F3E
Copy OK

No errors occurred


AccurateRip summary

Track 1 accurately ripped (confidence 1) [777DEF12] (AR v1)
Track 2 accurately ripped (confidence 1) [E3FFEC72] (AR v1)
Track 3 accurately ripped (confidence 1) [8DC7E9A7] (AR v1)
Track 4 accurately ripped (confidence 1) [0C6EAE3D] (AR v1)
Track 5 accurately ripped (confidence 1) [4B1FD4A4] (AR v1)
Track 6 accurately ripped (confidence 1) [181D9225] (AR v1)
Track 7 accurately ripped (confidence 1) [DA6B4DA0] (AR v1)
Track 8 accurately ripped (confidence 1) [DFB73C3E] (AR v1)
Track 9 accurately ripped (confidence 1) [D6BD933B] (AR v1)
Track 10 accurately ripped (confidence 1) [6736F11E] (AR v1)
Track 11 accurately ripped (confidence 1) [A7C5178D] (AR v1)
Track 12 accurately ripped (confidence 1) [F1EAEFFC] (AR v1)
Track 13 accurately ripped (confidence 1) [4A66B89A] (AR v1)
Track 14 accurately ripped (confidence 1) [5F3B5410] (AR v1)
Track 15 accurately ripped (confidence 1) [A367EF7C] (AR v1)

All tracks accurately ripped

End of status report

–– CUETools DB Plugin V2.1.3

[CTDB TOCID: VHEMFjTJ_grcuCOrAllTcZG2emc-] disk not present in database, Submit result: discs with pregaps not supported in this protocol version


==== Log checksum 70378D6318FDD141215B3ED1DFCCF6659C49F07757C377AB6C3CA8A89C9777F5 ====

foobar2000 1.1.14a / Dynamic Range Meter 1.1.1
log date: 2012-09-20 12:32:34

––––––––––––––––––––––––––––––––––––––––
Analyzed: Joachim Dorfmüller / Sächsische Orgelmusik
––––––––––––––––––––––––––––––––––––––––

DR Peak RMS Duration Track
––––––––––––––––––––––––––––––––––––––––
DR12 -0.25 dB -14.78 dB 13:02 01-J.S. Bach, Contrapunktus XVIII, BWV 1080, Helmut Walcha
DR9 -17.38 dB -29.96 dB 2:59 02-J.S. Bach, 'Jesu, meine Freude', BWV 753, Wofgang Stockmeier
DR11 -5.37 dB -20.57 dB 2:56 03-Carl Philipp Emanuel Bach, Fuge über B-A-C-H
DR9 -9.51 dB -23.45 dB 1:35 04-Joh. Chr. Friedrich Bach, Fugette über H-C-F-B-B-A-C-H
DR11 -1.17 dB -16.32 dB 5:56 05-Joh.Christian Bach, Fuga über B-A-C-H
DR11 -1.73 dB -17.33 dB 8:01 06-Felix Mendelssohn-Bartholdy, Fantasia und Fuge g-moll, Norbert Linke
DR10 -6.72 dB -20.49 dB 7:26 07-Clara Schumann, Präludium und Fuge d-moll, OP 16 3, Joachim Dorfmüller
DR10 -1.13 dB -13.90 dB 1:35 08-Max Reger, 'Lobe den Herren', op. 67; CHORALVORSPIEL
DR11 -0.44 dB -15.29 dB 3:57 09-Sigfrid Karg-Elert, 'Nun danket alle Gott', op. 65 59, Choralimprovisation
DR10 -3.72 dB -18.49 dB 3:06 10-Herbert Gatsch, 'Allein Gott in der Höh`sei Ehr', Choralfantasie aus der Chor…
DR10 -4.54 dB -18.74 dB 2:25 11-Helmut Walcha 'Lobet den Herren' Choralvorspiel
DR9 -8.60 dB -20.93 dB 1:02 12-Reinhard Ohse'Fröhlich wir nun fangen an'
DR10 -10.10 dB -25.32 dB 0:50 13-Reinhard Ohse, 'Nun jauchzet dem Herren' (aus 7 Choralvorspiele für Erich Pia…
DR9 -2.92 dB -17.61 dB 2:52 14-Günther Ramin, Canzona
DR12 -0.05 dB -15.42 dB 16:47 15-Ernst Friedrich Eduard Richter, Fantasie und Fuge a-moll, op. 19
––––––––––––––––––––––––––––––––––––––––

Number of tracks: 15
Official DR value: DR10

Samplerate: 44100 Hz
Channels: 2
Bits per sample: 16
Bitrate: 556 kbps
Codec: FLAC
================================================================================



CD Info:

VA - Joachim Dorfmüller - Sächsische Orgelmusik: Joachim Dorfmüller spielt an Silbermann-Orgeln im Elsaß

Label: MDG
Catalog#: L 3330
Format: CD, Album
Country: Germany
Released: 1989
Genre: Classical
Style: Organ

Tracklist:

1 - J.S. Bach, Contrapunktus XVIII, BWV 1080, Helmut Walcha 13:02
2 - J.S. Bach, 'Jesu, meine Freude', BWV 753, Wofgang Stockmeier 2:59
3 - Carl Philipp Emanuel Bach, Fuge über B-A-C-H 2:56
4 - Joh. Chr. Friedrich Bach, Fugette über H-C-F-B-B-A-C-H 1:35
5 - Joh.Christian Bach, Fuga über B-A-C-H 5:56
6 - Felix Mendelssohn-Bartholdy, Fantasia und Fuge g-moll, Norbert Linke 8:01
7 - Clara Schumann, Präludium und Fuge d-moll, OP 16 3, Joachim Dorfmüller 7:26
8 - Max Reger, 'Lobe den Herren', op. 67; CHORALVORSPIEL 1:35
9 - Sigfrid Karg-Elert, 'Nun danket alle Gott', op. 65 59, Choralimprovisation 3:57
10 - Herbert Gatsch, 'Allein Gott in der Höh`sei Ehr', Choralfantasie aus der Chor… 3:06
11 - Helmut Walcha 'Lobet den Herren' Choralvorspiel 2:25
12 - Reinhard Ohse'Fröhlich wir nun fangen an' 1:02
13 - Reinhard Ohse, 'Nun jauchzet dem Herren' (aus 7 Choralvorspiele für Erich Pia… 0:50
14 - Günther Ramin, Canzona 2:52
15 - Ernst Friedrich Eduard Richter, Fantasie und Fuge a-moll, op. 19 16:47

Various Composers - Joachim Dorfmüller - Sächsische Orgelmusik / Saxon Organ Music [MDG L 3330] {1989}


Andreas Silbermann (16 May 1678 - 16 March 1734) was a German organ builder, who was involved in the construction of 35 organs, mostly in Alsace. Andreas also established the Silbermann family tradition of organ building, training his brother Gottfried and his son Johann Andreas in the profession.
Johann Andreas Silbermann (26 June 1712, Strasbourg - 11 February 1783, Strasbourg) was an 18th century organ-builder, as were his father Andreas Silbermann and his paternal uncle Gottfried Silbermann. wikipedia


Julius Reubke - Martin Sander, Claudius Tanski - Sonata on the 94th Psalm in C minor & Piano Sonata in B minor
John Cage - Steffen Schleiermacher - Complete Piano Music Vol. 1 - The Prepared Piano
Brandt & Böhme - Wolfgang Bauer - Music For Trumpet [CD Rip]
Brandt & Böhme - Wolfgang Bauer - Music For Trumpet [SACD Rip]
Dietrich Buxtehude - Harald Vogel - Complete Organ Works
Johann Melchior Molter - Orchestral & Chamber Music
Georg Philipp Telemann - Musica Alta Ripa - Concertos and Chamber Music
Schumann - Trio Parnassus / Hariolf Schlichtig - Piano Quartet [CD Rip]
Schumann - Trio Parnassus / Hariolf Schlichtig - Piano Quartet [SACD Rip]
Christoph Graupner - Orchestral Works Vol. 3
Christoph Graupner - Orchestral Works Vol. 2
Christoph Graupner - Orchestral Works Vol. 1
Johann Sebastian Bach - Musica Alta Ripa - Solo Concertos Vol. 1
Albert Lortzing - Neue Detmolder Liedertafel - An den Frühling: Ernste und heitere Festgesänge für Männerstimmen
Musicalische Compagney - Lamenti & Concerti: Liebe und Klage in der Musik von Heinrich Schutz (1585-1672)
Franz Liszt - Tanski / Beethoven Orchester Bonn - Tasso, Totentanz, Piano Music [CD Rip]
Franz Liszt - Tanski / Beethoven Orchester Bonn - Tasso, Totentanz, Piano Music [SACD Rip]
Ottorino Respighi - Pini di Roma / Trittico / Tre Corali [CD Rip]
Ottorino Respighi - Pini di Roma / Trittico / Tre Corali [SACD Rip]
Berliner Vokalensemble ''Carl Maria von Weber'' - Bella Ciao
Berliner Vokalensemble ''Carl Maria von Weber'' - Kein schöner Land
George Frideric Handel - Belshazzar [HWV 61] (3xCD)
George Frideric Handel - Saul [HWV 53] (3xCD)
Johannes Brahms - Hardy Rittner - Early Piano Works Vol.1 [CD Rip]
Johannes Brahms - Hardy Rittner - Early Piano Works Vol.2 [CD Rip]
Johannes Brahms - Hardy Rittner - Early Piano Works Vol.2 [SACD Rip]
Johannes Brahms / Robert Schumann - Mozart Piano Quartet - Piano Quartets
Wolfgang Amadeus Mozart / Leipziger Streichquartett - The Ten Celebrated String Quartets
Norbert Schultze - Drops …unter der Laterne

Various Composers - Joachim Dorfmüller - Sächsische Orgelmusik / Saxon Organ Music [MDG L 3330] {1989}

// classical music \\
// all of my uploads \\
________________

Download:

Filepost FLAC
Filepost Artwork
________________