Subcategories

Dr. Dog - Critical Equation (2018)

Posted By: delpotro
Dr. Dog - Critical Equation (2018)

Dr. Dog - Critical Equation (2018)
EAC Rip | FLAC (tracks+log+.cue) - 260 Mb | MP3 CBR 320 kbps - 93 Mb | 00:40:24
Indie Rock, Psychedelic | Label: Thirty Tigers, We Buy Gold Records

Critical Equation is Dr. Dog's first proper full-length of new material in five years and is out April 27th through Thirty Tigers.

The LP is Dr. Dog’s first project helmed by an outside producer. They worked with Gus Seyffert (Bedouine, Michael Kiwanuka) in an effort to evolve their sound. “We’d been touring and making records for our entire adult lives, and I think we just needed to take a step back,” bassist and singer Toby Leaman shared through a press statement. “It was important for all of us to figure out if we were actually doing what we wanted to be doing, or if we were just letting momentum carry us down this path we’d always been on.”

“This band has been at work a long time and this record is about a concerted effort to push ourselves to grow with courage and confidence built upon our history together,” he added. “That ends up being a renewed testimony of love for ourselves, each other, the work we do together, and the willingness to approach something you know so well with a beginners innocence.”
Tracklist:
01 Listening In
02 Go Out Fighting
03 Buzzing in the Light
04 Virginia Please
05 Critical Equation
06 True Love
07 Heart Killer
08 Night
09 Under the Wheels
10 Coming Out of the Darkness

Exact Audio Copy V1.3 from 2. September 2016

EAC extraction logfile from 18. April 2018, 13:04

Dr. Dog / Critical Equation

Used drive : TSSTcorpDVD+-RW SN-208BB Adapter: 1 ID: 0

Read mode : Secure
Utilize accurate stream : Yes
Defeat audio cache : Yes
Make use of C2 pointers : No

Read offset correction : 6
Overread into Lead-In and Lead-Out : No
Fill up missing offset samples with silence : Yes
Delete leading and trailing silent blocks : No
Null samples used in CRC calculations : Yes
Used interface : Native Win32 interface for Win NT & 2000
Gap handling : Appended to previous track

Used output format : User Defined Encoder
Selected bitrate : 1024 kBit/s
Quality : High
Add ID3 tag : No
Command line compressor : C:\Program Files (x86)\Exact Audio Copy\FLAC\FLAC.EXE
Additional command line options : -8 -V -T "ARTIST=%artist%" -T "TITLE=%title%" -T "ALBUM=%albumtitle%" -T "DATE=%year%" -T "TRACKNUMBER=%tracknr%" -T "GENRE=%genre%" -T "PERFORMER=%albuminterpret%" -T "COMPOSER=%composer%" %haslyrics%–tag-from-file=LYRICS="%lyricsfile%"%haslyrics% -T "ALBUMARTIST=%albumartist%" -T "DISCNUMBER=%cdnumber%" -T "TOTALDISCS=%totalcds%" -T "TOTALTRACKS=%numtracks%" -T "COMMENT=%comment%" %source% -o %dest%


TOC of the extracted CD

Track | Start | Length | Start sector | End sector
––––––––––––––––––––––––––––-
1 | 0:00.00 | 4:52.66 | 0 | 21965
2 | 4:52.66 | 3:23.73 | 21966 | 37263
3 | 8:16.64 | 4:02.28 | 37264 | 55441
4 | 12:19.17 | 4:01.72 | 55442 | 73588
5 | 16:21.14 | 3:59.67 | 73589 | 91580
6 | 20:21.06 | 2:50.66 | 91581 | 104396
7 | 23:11.72 | 3:35.12 | 104397 | 120533
8 | 26:47.09 | 6:00.42 | 120534 | 147575
9 | 32:47.51 | 3:51.05 | 147576 | 164905
10 | 36:38.56 | 3:46.08 | 164906 | 181863


Track 1

Filename C:\Users\Mark\Music\EAC Rips\Dr. Dog - Critical Equation (2018) - FLAC\01 - Listening In.wav

Pre-gap length 0:00:02.00

Peak level 97.7 %
Extraction speed 2.8 X
Track quality 100.0 %
Test CRC 8B622FA6
Copy CRC 8B622FA6
Track not present in AccurateRip database
Copy OK

Track 2

Filename C:\Users\Mark\Music\EAC Rips\Dr. Dog - Critical Equation (2018) - FLAC\02 - Go Out Fighting.wav

Peak level 99.8 %
Extraction speed 2.9 X
Track quality 100.0 %
Test CRC 0DA2179C
Copy CRC 0DA2179C
Track not present in AccurateRip database
Copy OK

Track 3

Filename C:\Users\Mark\Music\EAC Rips\Dr. Dog - Critical Equation (2018) - FLAC\03 - Buzzing in the Light.wav

Peak level 97.6 %
Extraction speed 2.7 X
Track quality 99.9 %
Test CRC 9C8C3F34
Copy CRC 9C8C3F34
Track not present in AccurateRip database
Copy OK

Track 4

Filename C:\Users\Mark\Music\EAC Rips\Dr. Dog - Critical Equation (2018) - FLAC\04 - Virginia Please.wav

Peak level 98.5 %
Extraction speed 3.5 X
Track quality 100.0 %
Test CRC 45A6E9AA
Copy CRC 45A6E9AA
Track not present in AccurateRip database
Copy OK

Track 5

Filename C:\Users\Mark\Music\EAC Rips\Dr. Dog - Critical Equation (2018) - FLAC\05 - Critical Equation.wav

Peak level 97.9 %
Extraction speed 3.7 X
Track quality 100.0 %
Test CRC 3923ADAE
Copy CRC 3923ADAE
Track not present in AccurateRip database
Copy OK

Track 6

Filename C:\Users\Mark\Music\EAC Rips\Dr. Dog - Critical Equation (2018) - FLAC\06 - True Love.wav

Peak level 100.0 %
Extraction speed 3.7 X
Track quality 100.0 %
Test CRC 18BBA4F2
Copy CRC 18BBA4F2
Track not present in AccurateRip database
Copy OK

Track 7

Filename C:\Users\Mark\Music\EAC Rips\Dr. Dog - Critical Equation (2018) - FLAC\07 - Heart Killer.wav

Peak level 100.0 %
Extraction speed 3.9 X
Track quality 100.0 %
Test CRC 2386318F
Copy CRC 2386318F
Track not present in AccurateRip database
Copy OK

Track 8

Filename C:\Users\Mark\Music\EAC Rips\Dr. Dog - Critical Equation (2018) - FLAC\08 - Night.wav

Peak level 100.0 %
Extraction speed 3.8 X
Track quality 99.9 %
Test CRC B7EE8DFF
Copy CRC B7EE8DFF
Track not present in AccurateRip database
Copy OK

Track 9

Filename C:\Users\Mark\Music\EAC Rips\Dr. Dog - Critical Equation (2018) - FLAC\09 - Under the Wheels.wav

Peak level 97.9 %
Extraction speed 3.6 X
Track quality 99.9 %
Test CRC D6984F54
Copy CRC D6984F54
Track not present in AccurateRip database
Copy OK

Track 10

Filename C:\Users\Mark\Music\EAC Rips\Dr. Dog - Critical Equation (2018) - FLAC\10 - Coming Out of the Darkness.wav

Peak level 98.1 %
Extraction speed 3.7 X
Track quality 99.9 %
Test CRC C0FFAF60
Copy CRC C0FFAF60
Track not present in AccurateRip database
Copy OK


None of the tracks are present in the AccurateRip database

No errors occurred

End of status report

–– CUETools DB Plugin V2.1.6

[CTDB TOCID: l8M5drBwlVVURHHBC65iW6GJofA-] found
Submit result: l8M5drBwlVVURHHBC65iW6GJofA- has been confirmed
Track | CTDB Status
1 | (1/1) Accurately ripped
2 | (1/1) Accurately ripped
3 | (1/1) Accurately ripped
4 | (1/1) Accurately ripped
5 | (1/1) Accurately ripped
6 | (1/1) Accurately ripped
7 | (1/1) Accurately ripped
8 | (1/1) Accurately ripped
9 | (1/1) Accurately ripped
10 | (1/1) Accurately ripped


==== Log checksum 5953E894FEE9ECADB8CC5B042253E8F5B80E0643667B3A5A38109DA6A249DF94 ====

Thanks to the Original ripper mooky !