Subcategories

Dr. Feelgood - Singled Out: The U.A./Liberty A's, B's & Rarities [3 CD Box Set]

Posted By: Toxxy
Dr. Feelgood - Singled Out: The U.A./Liberty A's, B's & Rarities [3 CD Box Set]

Dr. Feelgood - Singled Out: The U.A./Liberty A's, B's & Rarities [3 CD Box Set]
Year/Label: 2001 EMI Records | CD#: 7243 5 34242 2 0 | File-hosts: RS.com & Hotfile
FLAC-5 images + Mp3 @320 CBR (tracks) | Complete Artwork (600dpi)
Pub-Rock/R'n'B | FLAC: 1.06 GB | Mp3: 361 MB | Artwork: 34 MB | WinRAR Recovery 5%

EAC Secure-rips with LOG's+CUE's+COVERS | Source: my CD-collection

Dr. Feelgood - Singled Out: The U.A./Liberty A's, B's & Rarities [3 CD Box Set]


Maximum R'n'B with this 3 CD box set from Dr. Feelgood. 49 tracks including the singles, A and B sides, along with some rarer recordings from their time with UA/Liberty. All the tracks except 2 feature Lee Brilleaux on vocals.

Although Lee sadly died in 1994, Dr. Feelgood are still gigging extensively and recording new albums. And long many they continue to do so!



Dr. Feelgood's official homepage

Dr. Feelgood at Wikipedia


This collection of 49 tracks by the road rocking Dr. Feelgood includes singles, rare tracks and acoustic radio performances, including "Roxette," "She Does It Right," "Sneaking Suspicion," and "Hong Kong Money."

Import only release compiles for the first time all the British pub-rock act's United Artists & Liberty singles & rarities. Disc 1, The A Sides features 17 tracks, disc 2, the B Sides also features 17 tracks & disc 3, The Rarities & Extras features 15 tracks (8 performed live).


Track List:

Disc 1:

1. Roxette
2. She Does It Right
3. Back In The Night
4. Roxette [Live]
5. Sneakin' Suspicion
6. She's A Wind Up
7. Baby Jane
8. Down At The Doctors
9. Milk And Alcohol
10. As Long As The Price Is Right
11. Put Him Out Of Your Mind
12. Hong Kong Money
13. No Mo Do Yakamo
14. Jumping From Love To Love
15. Violent Love
16. Waiting For Saturday Night
17. Milk And Alcohol [New Recipe]

Exact Audio Copy V0.99 prebeta 5 from 4. May 2009

EAC extraction logfile from 20. August 2009, 20:20

Dr. Feelgood / Singled Out, CD1 - The U.A.-Liberty A Sides

Used drive : TSSTcorpCDDVDW SH-S202N Adapter: 0 ID: 0

Read mode : Secure
Utilize accurate stream : Yes
Defeat audio cache : Yes
Make use of C2 pointers : No

Read offset correction : 6
Overread into Lead-In and Lead-Out : No
Fill up missing offset samples with silence : Yes
Delete leading and trailing silent blocks : No
Null samples used in CRC calculations : Yes
Used interface : Installed external ASPI interface

Used output format : User Defined Encoder
Selected bitrate : 320 kBit/s
Quality : High
Add ID3 tag : Yes
Command line compressor : C:\Programmer\Exact Audio Copy\Flac\flac.exe
Additional command line options : -V -5 -T "artist=%a" -T "title=%t" -T "album=%g" -T "date=%y" -T "tracknumber=%n" -T "genre=%m" %s


TOC of the extracted CD

Track | Start | Length | Start sector | End sector
––––––––––––––––––––––––––––-
1 | 0:00.00 | 2:56.23 | 0 | 13222
2 | 2:56.23 | 3:21.30 | 13223 | 28327
3 | 6:17.53 | 3:18.32 | 28328 | 43209
4 | 9:36.10 | 2:54.74 | 43210 | 56333
5 | 12:31.09 | 3:50.26 | 56334 | 73609
6 | 16:21.35 | 2:03.42 | 73610 | 82876
7 | 18:25.02 | 3:02.16 | 82877 | 96542
8 | 21:27.18 | 3:15.44 | 96543 | 111211
9 | 24:42.62 | 2:50.52 | 111212 | 124013
10 | 27:33.39 | 3:17.63 | 124014 | 138851
11 | 30:51.27 | 3:51.38 | 138852 | 156214
12 | 34:42.65 | 4:35.44 | 156215 | 176883
13 | 39:18.34 | 2:15.53 | 176884 | 187061
14 | 41:34.12 | 2:52.24 | 187062 | 199985
15 | 44:26.36 | 2:21.59 | 199986 | 210619
16 | 46:48.20 | 3:12.50 | 210620 | 225069
17 | 50:00.70 | 3:07.05 | 225070 | 239099


Range status and errors

Selected range

Filename D:\Dr. Feelgood - Singled Out, CD1 - The U.A.-Liberty A Sides.wav

Peak level 99.8 %
Range quality 100.0 %
Copy CRC F0FD7DC3
Copy OK

No errors occurred


AccurateRip summary

Track 1 accurately ripped (confidence 2) [56A1C7C2]
Track 2 accurately ripped (confidence 2) [116BD93B]
Track 3 accurately ripped (confidence 2) [96358994]
Track 4 accurately ripped (confidence 2) [00E9DC93]
Track 5 accurately ripped (confidence 2) [7C6C3DEF]
Track 6 accurately ripped (confidence 2) [D99D02DD]
Track 7 accurately ripped (confidence 2) [200A0358]
Track 8 accurately ripped (confidence 2) [4D6AA928]
Track 9 accurately ripped (confidence 2) [9874C058]
Track 10 accurately ripped (confidence 2) [5F5EF031]
Track 11 accurately ripped (confidence 2) [1EAF6DF6]
Track 12 accurately ripped (confidence 2) [FAE486C8]
Track 13 accurately ripped (confidence 2) [0297FBCD]
Track 14 accurately ripped (confidence 2) [A7100ED3]
Track 15 accurately ripped (confidence 2) [288691BC]
Track 16 accurately ripped (confidence 2) [27DAEC11]
Track 17 accurately ripped (confidence 2) [142A0D2D]

All tracks accurately ripped

End of status report


Disc 2:

18. (Get Your Kicks On) Route 66
19. I Don't Mind
20. I'm A Man [Live]
21. Keep It Out Of Sight [Live]
22. Lights Out
23. Hi Rise
24. Looking Back
25. Take A Trip
26. Every Kind Of Vice
27. Down At The (Other) Doctors
28. Bend Your Ear
29. Keeka Sneeka
30. Best In The World
31. Love Hound
32. Case Of The Shakes
33. Eileen
34. She's Got Her Eyes On You

Exact Audio Copy V0.99 prebeta 5 from 4. May 2009

EAC extraction logfile from 20. August 2009, 22:17

Dr. Feelgood / Singled Out, CD2 - The U.A.-Liberty B-Sides

Used drive : TSSTcorpCDDVDW SH-S202N Adapter: 0 ID: 0

Read mode : Secure
Utilize accurate stream : Yes
Defeat audio cache : Yes
Make use of C2 pointers : No

Read offset correction : 6
Overread into Lead-In and Lead-Out : No
Fill up missing offset samples with silence : Yes
Delete leading and trailing silent blocks : No
Null samples used in CRC calculations : Yes
Used interface : Installed external ASPI interface

Used output format : User Defined Encoder
Selected bitrate : 320 kBit/s
Quality : High
Add ID3 tag : Yes
Command line compressor : C:\Programmer\Exact Audio Copy\Flac\flac.exe
Additional command line options : -V -5 -T "artist=%a" -T "title=%t" -T "album=%g" -T "date=%y" -T "tracknumber=%n" -T "genre=%m" %s


TOC of the extracted CD

Track | Start | Length | Start sector | End sector
––––––––––––––––––––––––––––-
1 | 0:00.00 | 3:23.68 | 0 | 15292
2 | 3:23.68 | 2:35.31 | 15293 | 26948
3 | 5:59.24 | 5:17.61 | 26949 | 50784
4 | 11:17.10 | 3:05.09 | 50785 | 64668
5 | 14:22.19 | 1:54.52 | 64669 | 73270
6 | 16:16.71 | 2:43.32 | 73271 | 85527
7 | 19:00.28 | 2:00.41 | 85528 | 94568
8 | 21:00.69 | 4:19.72 | 94569 | 114065
9 | 25:20.66 | 3:23.35 | 114066 | 129325
10 | 28:44.26 | 3:51.09 | 129326 | 146659
11 | 32:35.35 | 4:05.24 | 146660 | 165058
12 | 36:40.59 | 4:04.00 | 165059 | 183358
13 | 40:44.59 | 2:34.12 | 183359 | 194920
14 | 43:18.71 | 3:00.63 | 194921 | 208483
15 | 46:19.59 | 2:57.06 | 208484 | 221764
16 | 49:16.65 | 2:35.69 | 221765 | 233458
17 | 51:52.59 | 3:13.16 | 233459 | 247949


Range status and errors

Selected range

Filename D:\Dr. Feelgood - Singled Out, CD2 - The U.A.-Liberty B-Sides.wav

Peak level 99.8 %
Range quality 99.9 %
Copy CRC C3ACA783
Copy OK

No errors occurred


AccurateRip summary

Track 1 accurately ripped (confidence 6) [4F5C2F89]
Track 2 accurately ripped (confidence 6) [39238DFC]
Track 3 accurately ripped (confidence 6) [D5F01A46]
Track 4 accurately ripped (confidence 6) [4F6A56F0]
Track 5 accurately ripped (confidence 6) [DC264E6B]
Track 6 accurately ripped (confidence 6) [54FC8785]
Track 7 accurately ripped (confidence 6) [71FD1117]
Track 8 accurately ripped (confidence 6) [36D05C84]
Track 9 accurately ripped (confidence 6) [FF137EAB]
Track 10 accurately ripped (confidence 6) [6ADD5973]
Track 11 accurately ripped (confidence 6) [55A4CE7B]
Track 12 accurately ripped (confidence 6) [C1091FF0]
Track 13 accurately ripped (confidence 6) [9DC6B4A3]
Track 14 accurately ripped (confidence 6) [9241ABB7]
Track 15 accurately ripped (confidence 6) [B1E031F9]
Track 16 accurately ripped (confidence 6) [6C0E7220]
Track 17 accurately ripped (confidence 6) [AD295EEE]

All tracks accurately ripped

End of status report


Disc 3:

35. It Don't Take But A Few Minutes [perforemd by The Oil City Sheiks]
36. Blues Jam [perforemd by The Oil City Sheiks]
37. Riot In Cell Block #9 [Live]
38. Johnny B Goode [Live]
39. Homework [Live]
40. You Upset Me Baby [Live]
41. Riot In Cell Block #9 [Live]
42. Blues Had A Baby And They Named It Rock 'n' Roll [Live]
43. Lights Out [Live]
44. Great Balls Of Fire [Live]
45. Hong Kong Money [DJ Version]
46. Mad Man Blues
47. Don't Start Me Talkin'
48. Suzie Q
49. Gimme One More Shot

Exact Audio Copy V0.99 prebeta 5 from 4. May 2009

EAC extraction logfile from 20. August 2009, 22:50

Dr. Feelgood / Singled Out, CD3 - The Rarities & Extras

Used drive : TSSTcorpCDDVDW SH-S202N Adapter: 0 ID: 0

Read mode : Secure
Utilize accurate stream : Yes
Defeat audio cache : Yes
Make use of C2 pointers : No

Read offset correction : 6
Overread into Lead-In and Lead-Out : No
Fill up missing offset samples with silence : Yes
Delete leading and trailing silent blocks : No
Null samples used in CRC calculations : Yes
Used interface : Installed external ASPI interface

Used output format : User Defined Encoder
Selected bitrate : 320 kBit/s
Quality : High
Add ID3 tag : Yes
Command line compressor : C:\Programmer\Exact Audio Copy\Flac\flac.exe
Additional command line options : -V -5 -T "artist=%a" -T "title=%t" -T "album=%g" -T "date=%y" -T "tracknumber=%n" -T "genre=%m" %s


TOC of the extracted CD

Track | Start | Length | Start sector | End sector
––––––––––––––––––––––––––––-
1 | 0:00.00 | 3:29.02 | 0 | 15676
2 | 3:29.02 | 5:51.63 | 15677 | 42064
3 | 9:20.65 | 3:56.38 | 42065 | 59802
4 | 13:17.28 | 4:02.42 | 59803 | 77994
5 | 17:19.70 | 2:23.47 | 77995 | 88766
6 | 19:43.42 | 4:20.66 | 88767 | 108332
7 | 24:04.33 | 4:01.34 | 108333 | 126441
8 | 28:05.67 | 2:36.62 | 126442 | 138203
9 | 30:42.54 | 2:27.08 | 138204 | 149236
10 | 33:09.62 | 2:09.46 | 149237 | 158957
11 | 35:19.33 | 3:21.46 | 158958 | 174078
12 | 38:41.04 | 2:25.48 | 174079 | 185001
13 | 41:06.52 | 2:38.74 | 185002 | 196925
14 | 43:45.51 | 2:49.19 | 196926 | 209619
15 | 46:34.70 | 2:57.05 | 209620 | 222899


Range status and errors

Selected range

Filename D:\Dr. Feelgood - Singled Out, CD3 - The Rarities & Extras.wav

Peak level 99.8 %
Range quality 100.0 %
Copy CRC F92A084D
Copy OK

No errors occurred


AccurateRip summary

Track 1 accurately ripped (confidence 6) [64EBA69F]
Track 2 accurately ripped (confidence 6) [6FAF4FA3]
Track 3 accurately ripped (confidence 6) [12167AC5]
Track 4 accurately ripped (confidence 6) [2488B0D3]
Track 5 accurately ripped (confidence 6) [3C8C5945]
Track 6 accurately ripped (confidence 6) [17D6BFA7]
Track 7 accurately ripped (confidence 6) [DA4B0A10]
Track 8 accurately ripped (confidence 6) [D8775C07]
Track 9 accurately ripped (confidence 6) [B9A44A8F]
Track 10 accurately ripped (confidence 6) [DCE729D9]
Track 11 accurately ripped (confidence 6) [6F943F09]
Track 12 accurately ripped (confidence 6) [4C092D9C]
Track 13 accurately ripped (confidence 6) [DBAC6EE5]
Track 14 accurately ripped (confidence 6) [7F3B926B]
Track 15 accurately ripped (confidence 6) [8B91E19D]

All tracks accurately ripped

End of status report




I've ripped this 3 CD set to FLAC-5 images and Mp3 @320 CBR (tracks) and I have of course also scanned the complete artwork :-)

All files are uploaded to Rapidshare.com & Hotfile.

Wanna FEEL GOOD? Hit me!

Password = thetoxxster


No mirror linx. Do not write the actually linx in your comments. Thx & cheers!

Enjoy the tunes ;-)