Subcategories

Dr. Lonnie Smith - Evolution (2016) {Blue Note Japan SHM-CD UCCQ-1057}

Posted By: ruskaval
Dr. Lonnie Smith - Evolution (2016) {Blue Note Japan SHM-CD UCCQ-1057}

Dr. Lonnie Smith - Evolution (2016) {Blue Note Japan SHM-CD UCCQ-1057}
EAC rip (secure mode) | FLAC (tracks)+CUE+LOG -> 415 Mb | MP3 @320 -> 149 Mb
Full Artwork @ 600 dpi (png) -> 310 Mb | 5% repair rar
© 2016 Blue Note / Universal Music Japan | UCCQ-1057
Jazz / Jazz Funk / Soul Jazz / Post Bop / Organ

Dr. Lonnie Smith brings an album with SHM-CD format. On Evolution, Dr. Lonnie Smith returns to the Blue Note Records label with a unique project that enhances his legacy as one of the premier masters of modern music. With three new Smith originals (“For Heaven’s Sake”, “African Suite” and “Talk About This”) and exciting new arrangements of tunes such as Monk’s “Straight No Chaser”, “Play It Back” and “Afrodesia,” The Good Doctor and his cast offer plenty of surprises and invention along with a serious groove.

Since Hammond B-3 specialist Lonnie Smith left Blue Note in the '70s, the largely self-taught musician has added the "Dr." to his name, adopted a traditional Sikh turban as a distinctive, if enigmatic style choice (it's unclear if he follows the religion), and continued to release a steady stream of highly regarded soulful well before the 21st century came around. With 2016's Evolution, Smith returns to Blue Note, his first studio album for the label since 1970's Drives. Produced by Don Was, Evolution is one of the most robust albums of his career. Where his previous few albums found him working in a trio format, on Evolution, Was surrounds Smith with various small group configurations featuring a bevy of post-bop, funk, and soul-ready musicians including drummers Jonathan Blake and Joe Dyson, guitarist Jonathan Kreisberg, trumpeters Keyon Harrold and Maurice Brown, and others. Also joining Smith here are several jazz luminaries including genre-bending pianist Robert Glasper, whose glassy piano tone rubs nicely against Smith's burnished Hammond warmth on "Play It Back." Similarly, saxophonist Joe Lovano, who first made his debut on Smith's 1975 effort Afrodesia, joins in on several cuts, including a reworking of "Afrodesia" and the slow-jam ballad "For Heaven's Sake." While Smith is the star of Evolution, the expanding group sound works well with his expansive approach to funk-jazz and the cuts with Harrold and Brown bring to mind the energetic hip-hop-inflected jazz of the Roots. Ultimately, it's Smith's juicy, nuanced, Hammond B-3 sound, deepened by over 50 years of experience, that makes Evolution such a career pinnacle.
Dr. Lonnie Smith - Evolution (2016) {Blue Note Japan SHM-CD UCCQ-1057}


Personnel:
Dr. Lonnie Smith – Hammond B3 organ, vocals, keyboards
Jonathan Kreisberg – guitar
Jonathan Blake – drums
Joe Dyson – drums (1-3, 5, 7)
Keyon Harrold – trumpet (1)
Maurice Brown – trumpet (2, 3, 5)
John Ellis – tenor sax (1, 2, 5), bass clarinet (3), flute(7)
Robert Glasper – piano (1)
Joe Lovano – tenor sax (3), mezzo soprano sax(2)

tracklist:
01 - Play It Back (featuring Robert Glasper)
02 - Afrodesia (featuring Joe Lovano)
03 - For Heaven's Sake (featuring Joe Lovano)
04 - Straight No Chaser
05 - Talk About This
06 - My Favorite Things
07 - African Suite

Exact Audio Copy V1.3 from 2. September 2016

EAC extraction logfile from 16. April 2018, 19:34

Dr. Lonnie Smith / Evolution (UCCQ-1057)

Used drive : ATAPI iHAS122 F Adapter: 1 ID: 2

Read mode : Secure
Utilize accurate stream : Yes
Defeat audio cache : Yes
Make use of C2 pointers : No

Read offset correction : 6
Overread into Lead-In and Lead-Out : No
Fill up missing offset samples with silence : Yes
Delete leading and trailing silent blocks : No
Null samples used in CRC calculations : Yes
Used interface : Native Win32 interface for Win NT & 2000
Gap handling : Appended to previous track

Used output format : User Defined Encoder
Selected bitrate : 1024 kBit/s
Quality : High
Add ID3 tag : No
Command line compressor : C:\Program Files (x86)\Exact Audio Copy_v1.3\Flac\flac.exe
Additional command line options : -8 -V -T "ARTIST=%artist%" -T "TITLE=%title%" -T "ALBUM=%albumtitle%" -T "DATE=%year%" -T "TRACKNUMBER=%tracknr%" -T "TOTALTRACKS=%numtracks%" -T "GENRE=%genre%" -T "ALBUMARTIST=%albumartist%" -T "ALBUM ARTIST=%albumartist%" -T "COMMENT=EAC Secure Mode, Test & Copy, AccurateRip, FLAC -8" %source%


TOC of the extracted CD

Track | Start | Length | Start sector | End sector
––––––––––––––––––––––––––––-
1 | 0:00.00 | 14:05.07 | 0 | 63381
2 | 14:05.07 | 8:20.66 | 63382 | 100947
3 | 22:25.73 | 5:52.12 | 100948 | 127359
4 | 28:18.10 | 6:43.57 | 127360 | 157641
5 | 35:01.67 | 7:20.23 | 157642 | 190664
6 | 42:22.15 | 11:10.12 | 190665 | 240926
7 | 53:32.27 | 9:52.63 | 240927 | 285389


Track 1

Filename D:\_EAC\Dr. Lonnie Smith - Evolution (2016) [FLAC] {Blue Note Japan SHM-CD UCCQ-1057}\01 - Play It Back (featuring Robert Glasper).wav

Pre-gap length 0:00:02.00

Peak level 100.0 %
Extraction speed 6.8 X
Track quality 100.0 %
Test CRC 95FE3D3D
Copy CRC 95FE3D3D
Accurately ripped (confidence 41) [6FF1A965] (AR v2)
Copy OK

Track 2

Filename D:\_EAC\Dr. Lonnie Smith - Evolution (2016) [FLAC] {Blue Note Japan SHM-CD UCCQ-1057}\02 - Afrodesia (featuring Joe Lovano).wav

Pre-gap length 0:00:00.72

Peak level 100.0 %
Extraction speed 8.1 X
Track quality 100.0 %
Test CRC D41B01C9
Copy CRC D41B01C9
Accurately ripped (confidence 42) [8E3C0D7D] (AR v2)
Copy OK

Track 3

Filename D:\_EAC\Dr. Lonnie Smith - Evolution (2016) [FLAC] {Blue Note Japan SHM-CD UCCQ-1057}\03 - For Heaven's Sake (featuring Joe Lovano).wav

Pre-gap length 0:00:00.47

Peak level 100.0 %
Extraction speed 8.6 X
Track quality 100.0 %
Test CRC A295C191
Copy CRC A295C191
Accurately ripped (confidence 43) [F843825F] (AR v2)
Copy OK

Track 4

Filename D:\_EAC\Dr. Lonnie Smith - Evolution (2016) [FLAC] {Blue Note Japan SHM-CD UCCQ-1057}\04 - Straight No Chaser.wav

Pre-gap length 0:00:00.74

Peak level 100.0 %
Extraction speed 9.3 X
Track quality 100.0 %
Test CRC 24998796
Copy CRC 24998796
Accurately ripped (confidence 42) [751E4B06] (AR v2)
Copy OK

Track 5

Filename D:\_EAC\Dr. Lonnie Smith - Evolution (2016) [FLAC] {Blue Note Japan SHM-CD UCCQ-1057}\05 - Talk About This.wav

Pre-gap length 0:00:00.74

Peak level 100.0 %
Extraction speed 10.0 X
Track quality 100.0 %
Test CRC B68B335C
Copy CRC B68B335C
Accurately ripped (confidence 42) [7F6493ED] (AR v2)
Copy OK

Track 6

Filename D:\_EAC\Dr. Lonnie Smith - Evolution (2016) [FLAC] {Blue Note Japan SHM-CD UCCQ-1057}\06 - My Favorite Things.wav

Pre-gap length 0:00:00.74

Peak level 100.0 %
Extraction speed 11.0 X
Track quality 100.0 %
Test CRC 0E725544
Copy CRC 0E725544
Accurately ripped (confidence 42) [FEF237FD] (AR v2)
Copy OK

Track 7

Filename D:\_EAC\Dr. Lonnie Smith - Evolution (2016) [FLAC] {Blue Note Japan SHM-CD UCCQ-1057}\07 - African Suite.wav

Pre-gap length 0:00:00.74

Peak level 100.0 %
Extraction speed 11.7 X
Track quality 100.0 %
Test CRC 5AA58366
Copy CRC 5AA58366
Accurately ripped (confidence 41) [C175EDC8] (AR v2)
Copy OK


All tracks accurately ripped

No errors occurred

End of status report

–– CUETools DB Plugin V2.1.6

[CTDB TOCID: MuoQz0I1AfeYTCq.mwl7l0MeIv8-] found
Submit result: MuoQz0I1AfeYTCq.mwl7l0MeIv8- has been confirmed
Track | CTDB Status
1 | (106/106) Accurately ripped
2 | (105/106) Accurately ripped
3 | (106/106) Accurately ripped
4 | (106/106) Accurately ripped
5 | (106/106) Accurately ripped
6 | (106/106) Accurately ripped
7 | (105/106) Accurately ripped


==== Log checksum 3DFD15636EA85B47A8A7FF4C40293F6D7DA38ECF2CD0B96004746B12F092314A ====


Dr. Lonnie Smith - Evolution (2016) {Blue Note Japan SHM-CD UCCQ-1057}

Dr. Lonnie Smith - Evolution (2016) {Blue Note Japan SHM-CD UCCQ-1057}


see more Dr. Lonnie Smith…


===