Subcategories

Dr. Lonnie Smith - The Healer (2012) {Pilgrimage PCD001}

Posted By: ruskaval
Dr. Lonnie Smith - The Healer (2012) {Pilgrimage PCD001}

Dr. Lonnie Smith - The Healer (2012) {Pilgrimage PCD001}
EAC rip (secure mode) | FLAC (tracks)+CUE+LOG -> 357 Mb | MP3 @320 -> 143 Mb
Full Artwork @ 600 dpi (png) -> 85 Mb | 5% repair rar
© 2012 Pilgrimage Productions | PCD001
Jazz / Hammond B-3 / Soul Jazz

The great B3 organ master and conjurer of sound, Doctor Lonnie Smith, has made some great studio recordings, but he'll be the first to tell you that his music needs to be experienced live. The release of his brand new live recording The Healer marks the Doctor's first live recording since his landmark 1970 album Live At Club Mozambique. It showcases the great bandleader reinventing the possibilities of sound along with two young stars - guitarist Jonathan Kreisberg and drummer Jamire Williams. The Healer puts the listener front row center at a wild ride of a show that seamlessly blends jazz, fusion, hip hop, world music, and of course the B3 funk that Doc helped create. It also marks the launch of Pilgrimage Records, the good doctor's new completely artist controlled record label.

AAJ INFO

Personnel:
Dr. Lonnie Smith - Hammond B3 organ, vocals, keyboards & electric percussion
Jonathan Kreisberg - guitar
Jamire Williams - drums

tracklist:
01. Backtrack
02. Mellow Mood
03. Dapper Dan
04. Chelsea Bridge
05. Beehive
06. Pilgrimage

Exact Audio Copy V1.3 from 2. September 2016

EAC extraction logfile from 3. July 2017, 20:26

Dr. Lonnie Smith / The Healer

Used drive : TSSTcorpCDDVDW SE-208DB Adapter: 1 ID: 1

Read mode : Secure
Utilize accurate stream : Yes
Defeat audio cache : Yes
Make use of C2 pointers : No

Read offset correction : 6
Overread into Lead-In and Lead-Out : No
Fill up missing offset samples with silence : Yes
Delete leading and trailing silent blocks : No
Null samples used in CRC calculations : Yes
Used interface : Native Win32 interface for Win NT & 2000
Gap handling : Appended to previous track

Used output format : User Defined Encoder
Selected bitrate : 1024 kBit/s
Quality : High
Add ID3 tag : No
Command line compressor : C:\Program Files (x86)\FLAC Frontend\tools\flac.exe
Additional command line options : -8 -V -T "ARTIST=%artist%" -T "TITLE=%title%" -T "ALBUM=%albumtitle%" -T "DATE=%year%" -T "TRACKNUMBER=%tracknr%" -T "TOTALTRACKS=%numtracks%" -T "GENRE=%genre%" -T "ALBUMARTIST=%albumartist%" -T "ALBUM ARTIST=%albumartist%" -T "COMMENT=EAC Secure Mode, Test & Copy, AccurateRip, FLAC -8" %source%


TOC of the extracted CD

Track | Start | Length | Start sector | End sector
––––––––––––––––––––––––––––-
1 | 0:00.00 | 13:17.26 | 0 | 59800
2 | 13:17.26 | 8:22.34 | 59801 | 97484
3 | 21:39.60 | 7:17.13 | 97485 | 130272
4 | 28:56.73 | 9:41.43 | 130273 | 173890
5 | 38:38.41 | 10:45.00 | 173891 | 222265
6 | 49:23.41 | 11:51.09 | 222266 | 275599


Track 1

Filename E:\EAC_RIP\Dr. Lonnie Smith - The Healer (2012) [FLAC] {Pilgrimage PCD001}\01 - Backtrack.wav

Pre-gap length 0:00:02.00

Peak level 96.6 %
Extraction speed 1.3 X
Track quality 100.0 %
Test CRC 34815898
Copy CRC 34815898
Accurately ripped (confidence 8) [17CF3FD7] (AR v2)
Copy OK

Track 2

Filename E:\EAC_RIP\Dr. Lonnie Smith - The Healer (2012) [FLAC] {Pilgrimage PCD001}\02 - Mellow Mood.wav

Peak level 96.6 %
Extraction speed 1.5 X
Track quality 100.0 %
Test CRC C773D101
Copy CRC C773D101
Accurately ripped (confidence 8) [2A99D8B5] (AR v2)
Copy OK

Track 3

Filename E:\EAC_RIP\Dr. Lonnie Smith - The Healer (2012) [FLAC] {Pilgrimage PCD001}\03 - Dapper Dan.wav

Peak level 96.6 %
Extraction speed 1.6 X
Track quality 100.0 %
Test CRC E1709F95
Copy CRC E1709F95
Accurately ripped (confidence 8) [3226063D] (AR v2)
Copy OK

Track 4

Filename E:\EAC_RIP\Dr. Lonnie Smith - The Healer (2012) [FLAC] {Pilgrimage PCD001}\04 - Chelsea Bridge.wav

Peak level 96.6 %
Extraction speed 1.8 X
Track quality 100.0 %
Test CRC 88039D2C
Copy CRC 88039D2C
Accurately ripped (confidence 8) [56EDDB8F] (AR v2)
Copy OK

Track 5

Filename E:\EAC_RIP\Dr. Lonnie Smith - The Healer (2012) [FLAC] {Pilgrimage PCD001}\05 - Beehive.wav

Peak level 96.6 %
Extraction speed 1.9 X
Track quality 100.0 %
Test CRC A9D5E291
Copy CRC A9D5E291
Accurately ripped (confidence 8) [DFBA17CC] (AR v2)
Copy OK

Track 6

Filename E:\EAC_RIP\Dr. Lonnie Smith - The Healer (2012) [FLAC] {Pilgrimage PCD001}\06 - Pilgrimage.wav

Peak level 96.6 %
Extraction speed 1.9 X
Track quality 99.9 %
Test CRC E88372C5
Copy CRC E88372C5
Accurately ripped (confidence 8) [AF592E2C] (AR v2)
Copy OK


All tracks accurately ripped

No errors occurred

End of status report

–– CUETools DB Plugin V2.1.6

[CTDB TOCID: v_WdkhL9XpjGD93FGhs60xxgLL0-] found
Submit result: v_WdkhL9XpjGD93FGhs60xxgLL0- has been confirmed
Track | CTDB Status
1 | (7/7) Accurately ripped
2 | (7/7) Accurately ripped
3 | (7/7) Accurately ripped
4 | (7/7) Accurately ripped
5 | (7/7) Accurately ripped
6 | (7/7) Accurately ripped


==== Log checksum D256DF899D28212F2A63A651EBA9B9D1541B2EA127D50028AE2BA13A4BE0FE26 ====


Dr. Lonnie Smith - The Healer (2012) {Pilgrimage PCD001}

Dr. Lonnie Smith - The Healer (2012) {Pilgrimage PCD001}


see more Dr. Lonnie Smith…


===