Subcategories

Norbert Schultze - Vokalquartett Drops ...unter der Laterne [MDG Scene MDG 622 0734-2] {Germany 1997}

Posted By: luckburz
Norbert Schultze - Vokalquartett Drops ...unter der Laterne [MDG Scene MDG 622 0734-2] {Germany 1997}

Norbert Schultze - Drops …unter der Laterne
FLAC, EAC, LOG & CUE | Lossless Artwork | Size: 355 MB + Recovery Info
Label/Cat#: MDG Scene MDG 622 0734-2 | Country/Year: Germany 1997
Genre: Chanson / A Capella | Hoster: Filepost/Filefactory

MD5 [X] CUE [X] LOG [X] INFO TEXT [X] ARTWORK [X]

webfind [] selfrip [X]

Norbert Schultze - Vokalquartett Drops ...unter der Laterne [MDG Scene MDG 622 0734-2] {Germany 1997}

Norbert Schultze - Vokalquartett Drops ...unter der Laterne [MDG Scene MDG 622 0734-2] {Germany 1997}



Extraction Log:

Exact Audio Copy V1.0 beta 2 from 29. April 2011

EAC extraction logfile from 11. March 2012, 12:13

Norbert Schultze / Drops …unter der Laterne

Used drive : PIONEER BD-RW BDR-206 Adapter: 2 ID: 3

Read mode : Secure
Utilize accurate stream : Yes
Defeat audio cache : Yes
Make use of C2 pointers : No

Read offset correction : 667
Overread into Lead-In and Lead-Out : No
Fill up missing offset samples with silence : Yes
Delete leading and trailing silent blocks : No
Null samples used in CRC calculations : Yes
Used interface : Native Win32 interface for Win NT & 2000

Used output format : User Defined Encoder
Selected bitrate : 896 kBit/s
Quality : High
Add ID3 tag : No
Command line compressor : C:\Program Files\FLAC\flac.exe
Additional command line options : -5 -T "Artist=%artist%" -T "Title=%title%" -T "Album=%albumtitle%" -T "Date=%year%" -T "Tracknumber=%tracknr%" -T "Genre=%genre%" %source% -o %dest%


TOC of the extracted CD

Track | Start | Length | Start sector | End sector
––––––––––––––––––––––––––––-
1 | 0:00.32 | 2:59.05 | 32 | 13461
2 | 2:59.37 | 3:40.33 | 13462 | 29994
3 | 6:39.70 | 3:28.12 | 29995 | 45606
4 | 10:08.07 | 3:38.10 | 45607 | 61966
5 | 13:46.17 | 2:49.48 | 61967 | 74689
6 | 16:35.65 | 5:32.02 | 74690 | 99591
7 | 22:07.67 | 3:51.43 | 99592 | 116959
8 | 25:59.35 | 4:26.00 | 116960 | 136909
9 | 30:25.35 | 1:47.57 | 136910 | 144991
10 | 32:13.17 | 4:03.40 | 144992 | 163256
11 | 36:16.57 | 2:04.20 | 163257 | 172576
12 | 38:21.02 | 0:23.03 | 172577 | 174304
13 | 38:44.05 | 1:51.15 | 174305 | 182644
14 | 40:35.20 | 1:25.35 | 182645 | 189054
15 | 42:00.55 | 0:35.72 | 189055 | 191751
16 | 42:36.52 | 0:41.13 | 191752 | 194839
17 | 43:17.65 | 1:48.35 | 194840 | 202974
18 | 45:06.25 | 1:35.72 | 202975 | 210171
19 | 46:42.22 | 1:15.30 | 210172 | 215826
20 | 47:57.52 | 0:48.20 | 215827 | 219446
21 | 48:45.72 | 1:27.15 | 219447 | 225986
22 | 50:13.12 | 1:18.65 | 225987 | 231901
23 | 51:32.02 | 1:48.33 | 231902 | 240034
24 | 53:20.35 | 1:02.05 | 240035 | 244689
25 | 54:22.40 | 0:50.02 | 244690 | 248441
26 | 55:12.42 | 1:13.38 | 248442 | 253954
27 | 56:26.05 | 1:37.02 | 253955 | 261231
28 | 58:03.07 | 0:15.48 | 261232 | 262404
29 | 58:18.55 | 1:03.02 | 262405 | 267131


Range status and errors

Selected range

Filename I:\=== VINYL RIPS ===\=== EAC===\X FRESH RIP\Norbert Schultze - Drops …unter der Laterne.wav

Peak level 97.5 %
Extraction speed 7.6 X
Range quality 100.0 %
Test CRC 38681FE4
Copy CRC 38681FE4
Copy OK

No errors occurred


AccurateRip summary

Track 1 not present in database
Track 2 not present in database
Track 3 not present in database
Track 4 not present in database
Track 5 not present in database
Track 6 not present in database
Track 7 not present in database
Track 8 not present in database
Track 9 not present in database
Track 10 not present in database
Track 11 not present in database
Track 12 not present in database
Track 13 not present in database
Track 14 not present in database
Track 15 not present in database
Track 16 not present in database
Track 17 not present in database
Track 18 not present in database
Track 19 not present in database
Track 20 not present in database
Track 21 not present in database
Track 22 not present in database
Track 23 not present in database
Track 24 not present in database
Track 25 not present in database
Track 26 not present in database
Track 27 not present in database
Track 28 not present in database
Track 29 not present in database

None of the tracks are present in the AccurateRip database

End of status report

==== Log checksum E8385F6820DE241A35275CDE5D03AF96394CAD85D87D2A7F74991BBE160D0BF0 ====


Dynamic Range Log:

foobar2000 1.1.7 / Dynamic Range Meter 1.1.1
log date: 2012-03-11 15:35:45

––––––––––––––––––––––––––––––––––––––––
Analyzed: Norbert Schultze / Drops …unter der Laterne
––––––––––––––––––––––––––––––––––––––––

DR Peak RMS Duration Track
––––––––––––––––––––––––––––––––––––––––
DR16 -1.00 dB -21.49 dB 2:59 01-Hallo, hallo
DR15 -0.22 dB -21.46 dB 3:40 02-O Signorina
DR16 -1.00 dB -23.33 dB 3:28 03-In meinem Schaukelstuhl
DR14 -6.00 dB -24.39 dB 3:38 04-Ein kleiner Reisender
DR14 -6.17 dB -24.45 dB 2:50 05-Commerzieller Tange
DR17 -3.81 dB -24.65 dB 5:32 06-Heinrich der Achte
DR17 -1.37 dB -24.53 dB 3:52 07-Sie müßten mal zum Doktor gehen
DR16 -0.68 dB -23.47 dB 4:26 08-Gib her den Speer, Penelope
DR15 -4.47 dB -22.63 dB 1:48 09-Let us go to Oberammergo
DR14 -1.28 dB -22.34 dB 4:04 10-Ob er aber über Oberammergau
DR13 -12.01 dB -29.97 dB 2:04 11-Lili Marleen
DR13 -12.89 dB -30.87 dB 0:23 12-Minnesang
DR11 -3.72 dB -21.22 dB 1:51 13-Johann Sebastian Bach
DR16 -5.07 dB -30.63 dB 1:25 14-Homer
DR10 -10.43 dB -24.69 dB 0:36 15-Wolfgang Amadeus Mozart
DR11 -24.32 dB -39.27 dB 0:41 16-Iterum in modum Christiani Luciferi
DR11 -11.85 dB -27.99 dB 1:48 17-Ludwig van Beethoven
DR17 -4.55 dB -30.22 dB 1:36 18-Johann Wolfgang von Goethe
DR12 -9.13 dB -25.52 dB 1:15 19-Franz Schubert
DR16 -12.81 dB -34.17 dB 0:48 20-Joseph von Eichendorff
DR11 -8.16 dB -25.13 dB 1:27 21-Robert Schumann
DR16 -10.69 dB -34.30 dB 1:19 22-Heinrich Heine
DR11 -6.11 dB -24.19 dB 1:48 23-Johannes Brahms
DR15 -8.23 dB -33.97 dB 1:02 24-Wilhelm Busch
DR10 -8.23 dB -25.04 dB 0:50 25-Antonin Dvorak
DR16 -20.18 dB -41.20 dB 1:14 26-Eugen Roth
DR12 -6.31 dB -24.68 dB 1:37 27-Bela Bartok
DR9 -25.59 dB -43.04 dB 0:16 28-Christian Morgenstern
DR11 -0.88 dB -20.40 dB 1:03 29-Johann Strauß
––––––––––––––––––––––––––––––––––––––––

Number of tracks: 29
Official DR value: DR14

Samplerate: 44100 Hz
Channels: 2
Bits per sample: 16
Bitrate: 499 kbps
Codec: FLAC
================================================================================



CD Info:

Norbert Schultze / Vokalquartett Drops – …Unter Der Laterne

Label: MDG Scene
Catalog#: MDG 622 0734-2
Format: CD, Album
Country: Germany
Released: 1997
Genre: Folk, World, & Country, Pop, Stage & Screen
Style: Chanson

Tracklist:

1 Hallo, Hallo 2:57
2 O Signorina 3:39
3 In Meinem Schaukelstuhl 3:26
4 Ein Kleiner Reisender 3:37
5 Commerzieller Tange 2:48
6 Heinrich Der Achte 5:29
7 Sie Müßten Mal Zum Doktor Gehen 3:48
8 Gib Her Den Speer, Penelope 4:23
9 Let Us Go To Oberammergo 1:46
10 Ob Er Aber Über Oberammergau 3:53
11 Lili Marleen 2:03
12 Minnesang 0:22
13 Johann Sebastian Bach 1:50
14 Homer 1:25
15 Wolfgang Amadeus Mozart 0:36
16 Iterum In Modum Christiani Luciferi 0:40
17 Ludwig Van Beethoven 1:47
18 Johann Wolfgang Von Goethe 1:36
19 Franz Schubert 1:13
20 Joseph Von Eichendorff 0:48
21 Robert Schumann 1:26
22 Heinrich Heine 1:19
23 Johannes Brahms 1:47
24 Wilhelm Busch 1:02
25 Antonin Dvorak 0:49
26 Eugen Roth 1:13
27 Bela Bartok 1:36
28 Christian Morgenstern 0:15
29 Johann Strauß 1:03

Credits:

Piano – Christoph Grohmann

Discogs Url: http://www.discogs.com/release/3466270

Norbert Schultze - Vokalquartett Drops ...unter der Laterne [MDG Scene MDG 622 0734-2] {Germany 1997}


Norbert Schultze (* 26. Januar 1911 in Braunschweig; † 14. Oktober 2002 in Bad Tölz), mit bürgerlichen Namen Norbert Arnold Wilhelm Richard, war ein deutscher Komponist und Dirigent. Er verwendete bei seinen Kompositionen auch die Pseudonyme Frank Norbert, Peter Kornfeld und Henri Iversen. Seine bekannteste Melodie war die des Liedes Lili Marleen. Weitere Werke waren die Opern Schwarzer Peter und Das kalte Herz, das Musical Käpt’n Bye-Bye, aus dem der Evergreen Nimm mich (uns) mit, Kapitän, auf die Reise stammt, sowie zahlreiche Filmmusiken, wie zum Beispiel zu Die Mädels vom Immenhof (1955).

Die Drops sind ein deutsches A-cappella-Vokalquartett, welches sich um 1980 aus ehemaligen Studenten der Musikhochschulen Detmold und Hannover gebildet hat.
Die Drops wurden im Jahr 1980 unter anderem in Zusammenarbeit mit dem WDR und den Arrangeuren Norbert Schultze und Emil Gerhardt gegründet, und baute ein Repertoire auf, das an die Hits der Comedian Harmonists anknüpft. Sie traten bald in zahlreichen WDR-Unterhaltungssendungen zu Ehren bekannter Komponisten der Unterhaltungsmusik wie Franz Grothe, Ralph Benatzky, Mischa Spoliansky, Gerhard Winkler, Paul Abraham oder Friedrich Schröder auf und waren bis heute bei fast allen öffentlich-rechtlichen Sendern im Programm.wikipedia


Check my blog for other lossless uploads:

//luckburz//

Password:

finest-hq-audio
DOWN