Subcategories

Duane Allman - An Anthology, Vol II (1974) [2CD] {2008 SHM-CD Japan Mini LP Edition}

Posted By: ruskaval
Duane Allman - An Anthology, Vol II (1974) [2CD] {2008 SHM-CD Japan Mini LP Edition}

Duane Allman - An Anthology, Vol II (1974) [2CD] {2008 SHM-CD Japan Mini LP Edition}
EAC rip (secure mode) | FLAC+CUE+LOG -> 533 Mb | MP3 @320 -> 182 Mb
Full Artwork @ 300 dpi (jpg) -> 17 Mb
© 2008 Universal / Capricorn | UICY-93509/10 | 24-bit remaster
Rock / Blues Rock / Southern Rock / Blues


Duane Allman - An Anthology, Vol II (1974) [2CD] {2008 SHM-CD Japan Mini LP Edition}

The session work with other players here isn't quite as good as the material on the first anthology, but An Anthology, Vol. 2 does feature a live cut by Delaney & Bonnie, plus a pair of what were then previously unissued Allman Brothers Band live tracks (among them "Midnight Rider" from the Fillmore East in June 1971). There's another good Duane Allman solo number and a good Hour Glass track ("Been Gone Too Long"), more session work with Aretha Franklin and King Curtis, Ronnie Hawkins ("Matchbox"), Wilson Pickett ("Born to Be Wild"), Johnny Jenkins, Boz Scaggs, Sam Samudio, and Otis Rush. The annotation here isn't as thorough as it was on the first volume, but anyone who owns the first double-CD set will almost certainly have to own this one as well, and for a set there's a lot of very good music.
Personnel includes: Duane Allman (vocals, guitar, acoustic & electric slide guitars, dobro); Delaney Bramlett (vocals, acoustic guitar); Sam Samudio (vocals, guitar, harmonica); Otis Rush, Johnny Jenkins (vocals, guitar); Aretha Franklin (vocals, piano); Wilson Pickett, Boz Scaggs, Lulu, Ronnie Hawkins, Bonnie Bramlett, Arthur Conley (vocals); Herbie Mann (flute); King Curtis (saxophone); The Allman Brothers Band; The Dixie Flyers.

tracklist:
CD1
01. Happily Married Man
02. It Ain't Fair
03. The Weight
04. You Reap What You Sow
05. Matchbox
06. Born to Be Wild
07. No Money Down
08. Been Gone Too Long
09. Stuff You Gotta Watch
10. Dirty Old Man
11. Push, Push

CD2
01. I Walk on Guilded Splinters
02. Waiting For a Train
03. Don't Tell Me Your Troubles
04. Going Upstairs
05. Come on in My Kitchen
06. Dimples
07. Going up the Country
08. Done Somebody Wrong
09. Leave My Blues at Home
10. Midnight Rider

Duane Allman - An Anthology, Vol II (1974) [2CD] {2008 SHM-CD Japan Mini LP Edition}

Exact Audio Copy V0.99 prebeta 5 from 4. May 2009

EAC extraction logfile from 22. December 2009, 9:21

Duane Allman / An Anthology, Vol II (CD1)

Used drive : TSSTcorpCD/DVDW TS-H552L Adapter: 3 ID: 0

Read mode : Secure
Utilize accurate stream : Yes
Defeat audio cache : Yes
Make use of C2 pointers : No

Read offset correction : 6
Overread into Lead-In and Lead-Out : No
Fill up missing offset samples with silence : Yes
Delete leading and trailing silent blocks : No
Null samples used in CRC calculations : Yes
Used interface : Native Win32 interface for Win NT & 2000
Gap handling : Appended to previous track

Used output format : User Defined Encoder
Selected bitrate : 1024 kBit/s
Quality : High
Add ID3 tag : No
Command line compressor : C:\Program Files\FLAC\flac.exe
Additional command line options : -6 -V -T "ARTIST=%a" -T "TITLE=%t" -T "ALBUM=%g" -T "DATE=%y" -T "TRACKNUMBER=%n" -T "GENRE=%m" -T "COMMENT=EAC FLAC -6" %s


TOC of the extracted CD

Track | Start | Length | Start sector | End sector
––––––––––––––––––––––––––––-
1 | 0:00.00 | 2:42.07 | 0 | 12156
2 | 2:42.07 | 3:20.61 | 12157 | 27217
3 | 6:02.68 | 2:45.39 | 27218 | 39631
4 | 8:48.32 | 4:54.44 | 39632 | 61725
5 | 13:43.01 | 3:05.47 | 61726 | 75647
6 | 16:48.48 | 2:43.41 | 75648 | 87913
7 | 19:32.14 | 3:27.20 | 87914 | 103458
8 | 22:59.34 | 3:02.54 | 103459 | 117162
9 | 26:02.13 | 2:14.03 | 117163 | 127215
10 | 28:16.16 | 2:20.71 | 127216 | 137786
11 | 30:37.12 | 9:58.64 | 137787 | 182700


Track 1

Filename C:\Duane Allman - An Anthology, Vol II (1974) [2CD] {2008 SHM-CD Japan Mini LP Edition}\CD1\01 - Happily Married Man.wav

Pre-gap length 0:00:02.00

Peak level 99.9 %
Track quality 100.0 %
Test CRC 38055DBB
Copy CRC 38055DBB
Track not present in AccurateRip database
Copy OK

Track 2

Filename C:\Duane Allman - An Anthology, Vol II (1974) [2CD] {2008 SHM-CD Japan Mini LP Edition}\CD1\02 - It Ain't Fair.wav

Pre-gap length 0:00:01.42

Peak level 99.9 %
Track quality 100.0 %
Test CRC D8F9C8ED
Copy CRC D8F9C8ED
Track not present in AccurateRip database
Copy OK

Track 3

Filename C:\Duane Allman - An Anthology, Vol II (1974) [2CD] {2008 SHM-CD Japan Mini LP Edition}\CD1\03 - The Weight.wav

Pre-gap length 0:00:01.33

Peak level 99.9 %
Track quality 100.0 %
Test CRC F1F70B97
Copy CRC F1F70B97
Track not present in AccurateRip database
Copy OK

Track 4

Filename C:\Duane Allman - An Anthology, Vol II (1974) [2CD] {2008 SHM-CD Japan Mini LP Edition}\CD1\04 - You Reap What You Sow.wav

Pre-gap length 0:00:01.47

Peak level 99.9 %
Track quality 100.0 %
Test CRC 7B522C37
Copy CRC 7B522C37
Track not present in AccurateRip database
Copy OK

Track 5

Filename C:\Duane Allman - An Anthology, Vol II (1974) [2CD] {2008 SHM-CD Japan Mini LP Edition}\CD1\05 - Matchbox.wav

Pre-gap length 0:00:01.22

Peak level 99.9 %
Track quality 99.9 %
Test CRC C57D8C8E
Copy CRC C57D8C8E
Track not present in AccurateRip database
Copy OK

Track 6

Filename C:\Duane Allman - An Anthology, Vol II (1974) [2CD] {2008 SHM-CD Japan Mini LP Edition}\CD1\06 - Born to Be Wild.wav

Pre-gap length 0:00:01.18

Peak level 99.9 %
Track quality 100.0 %
Test CRC 4F44720D
Copy CRC 4F44720D
Track not present in AccurateRip database
Copy OK

Track 7

Filename C:\Duane Allman - An Anthology, Vol II (1974) [2CD] {2008 SHM-CD Japan Mini LP Edition}\CD1\07 - No Money Down.wav

Pre-gap length 0:00:01.09

Peak level 99.9 %
Track quality 100.0 %
Test CRC 0CB15499
Copy CRC 0CB15499
Track not present in AccurateRip database
Copy OK

Track 8

Filename C:\Duane Allman - An Anthology, Vol II (1974) [2CD] {2008 SHM-CD Japan Mini LP Edition}\CD1\08 - Been Gone Too Long.wav

Pre-gap length 0:00:01.16

Peak level 99.9 %
Track quality 100.0 %
Test CRC 6FF0C3DA
Copy CRC 6FF0C3DA
Track not present in AccurateRip database
Copy OK

Track 9

Filename C:\Duane Allman - An Anthology, Vol II (1974) [2CD] {2008 SHM-CD Japan Mini LP Edition}\CD1\09 - Stuff You Gotta Watch.wav

Pre-gap length 0:00:01.54

Peak level 99.9 %
Track quality 100.0 %
Test CRC E7DAD2B2
Copy CRC E7DAD2B2
Track not present in AccurateRip database
Copy OK

Track 10

Filename C:\Duane Allman - An Anthology, Vol II (1974) [2CD] {2008 SHM-CD Japan Mini LP Edition}\CD1\10 - Dirty Old Man.wav

Pre-gap length 0:00:01.33

Peak level 99.9 %
Track quality 100.0 %
Test CRC 499B1193
Copy CRC 499B1193
Track not present in AccurateRip database
Copy OK

Track 11

Filename C:\Duane Allman - An Anthology, Vol II (1974) [2CD] {2008 SHM-CD Japan Mini LP Edition}\CD1\11 - Push Push.wav

Pre-gap length 0:00:01.53

Peak level 99.9 %
Track quality 100.0 %
Test CRC C62A48E3
Copy CRC C62A48E3
Track not present in AccurateRip database
Copy OK


None of the tracks are present in the AccurateRip database

No errors occurred

End of status report
–––––––––––––––––––––––––––––––––––––––––––––––––––––––––––––––––––––––––––––-
Exact Audio Copy V0.99 prebeta 5 from 4. May 2009

EAC extraction logfile from 22. December 2009, 9:29

Duane Allman / An Anthology, Vol II (CD2)

Used drive : TSSTcorpCD/DVDW TS-H552L Adapter: 3 ID: 0

Read mode : Secure
Utilize accurate stream : Yes
Defeat audio cache : Yes
Make use of C2 pointers : No

Read offset correction : 6
Overread into Lead-In and Lead-Out : No
Fill up missing offset samples with silence : Yes
Delete leading and trailing silent blocks : No
Null samples used in CRC calculations : Yes
Used interface : Native Win32 interface for Win NT & 2000
Gap handling : Appended to previous track

Used output format : User Defined Encoder
Selected bitrate : 1024 kBit/s
Quality : High
Add ID3 tag : No
Command line compressor : C:\Program Files\FLAC\flac.exe
Additional command line options : -6 -V -T "ARTIST=%a" -T "TITLE=%t" -T "ALBUM=%g" -T "DATE=%y" -T "TRACKNUMBER=%n" -T "GENRE=%m" -T "COMMENT=EAC FLAC -6" %s


TOC of the extracted CD

Track | Start | Length | Start sector | End sector
––––––––––––––––––––––––––––-
1 | 0:00.00 | 5:17.07 | 0 | 23781
2 | 5:17.07 | 2:41.51 | 23782 | 35907
3 | 7:58.58 | 2:14.71 | 35908 | 46028
4 | 10:13.54 | 5:05.30 | 46029 | 68933
5 | 15:19.09 | 3:38.61 | 68934 | 85344
6 | 18:57.70 | 5:03.16 | 85345 | 108085
7 | 24:01.11 | 2:35.24 | 108086 | 119734
8 | 26:36.35 | 4:33.17 | 119735 | 140226
9 | 31:09.52 | 4:18.10 | 140227 | 159586
10 | 35:27.62 | 2:54.49 | 159587 | 172685


Track 1

Filename C:\Duane Allman - An Anthology, Vol II (1974) [2CD] {2008 SHM-CD Japan Mini LP Edition}\CD2\01 - Walk on Gilded Splinters.wav

Pre-gap length 0:00:02.00

Peak level 99.9 %
Track quality 99.9 %
Test CRC 710047A9
Copy CRC 710047A9
Track not present in AccurateRip database
Copy OK

Track 2

Filename C:\Duane Allman - An Anthology, Vol II (1974) [2CD] {2008 SHM-CD Japan Mini LP Edition}\CD2\02 - Waiting For a Train.wav

Pre-gap length 0:00:01.56

Peak level 99.9 %
Track quality 99.9 %
Test CRC 6DFE3565
Copy CRC 6DFE3565
Track not present in AccurateRip database
Copy OK

Track 3

Filename C:\Duane Allman - An Anthology, Vol II (1974) [2CD] {2008 SHM-CD Japan Mini LP Edition}\CD2\03 - Don't Tell me Your Troubles.wav

Pre-gap length 0:00:01.15

Peak level 99.9 %
Track quality 100.0 %
Test CRC 60D4BB6D
Copy CRC 60D4BB6D
Track not present in AccurateRip database
Copy OK

Track 4

Filename C:\Duane Allman - An Anthology, Vol II (1974) [2CD] {2008 SHM-CD Japan Mini LP Edition}\CD2\04 - Goin' Upstairs.wav

Pre-gap length 0:00:01.54

Peak level 99.9 %
Track quality 100.0 %
Test CRC CA4AD388
Copy CRC CA4AD388
Track not present in AccurateRip database
Copy OK

Track 5

Filename C:\Duane Allman - An Anthology, Vol II (1974) [2CD] {2008 SHM-CD Japan Mini LP Edition}\CD2\05 - Come on in my Kitchen.wav

Pre-gap length 0:00:01.38

Peak level 99.9 %
Track quality 99.9 %
Test CRC F517BAE6
Copy CRC F517BAE6
Track not present in AccurateRip database
Copy OK

Track 6

Filename C:\Duane Allman - An Anthology, Vol II (1974) [2CD] {2008 SHM-CD Japan Mini LP Edition}\CD2\06 - Dimples.wav

Pre-gap length 0:00:01.64

Peak level 99.7 %
Track quality 100.0 %
Test CRC B42E8EAA
Copy CRC B42E8EAA
Track not present in AccurateRip database
Copy OK

Track 7

Filename C:\Duane Allman - An Anthology, Vol II (1974) [2CD] {2008 SHM-CD Japan Mini LP Edition}\CD2\07 - Goin' up The Country.wav

Pre-gap length 0:00:01.19

Peak level 99.9 %
Track quality 100.0 %
Test CRC E1D2F2EC
Copy CRC E1D2F2EC
Track not present in AccurateRip database
Copy OK

Track 8

Filename C:\Duane Allman - An Anthology, Vol II (1974) [2CD] {2008 SHM-CD Japan Mini LP Edition}\CD2\08 - Done Somebody Wrong.wav

Pre-gap length 0:00:01.31

Peak level 99.9 %
Track quality 100.0 %
Test CRC 97420F9C
Copy CRC 97420F9C
Track not present in AccurateRip database
Copy OK

Track 9

Filename C:\Duane Allman - An Anthology, Vol II (1974) [2CD] {2008 SHM-CD Japan Mini LP Edition}\CD2\09 - Leave my Blues at Home.wav

Pre-gap length 0:00:01.40

Peak level 99.8 %
Track quality 100.0 %
Test CRC D2D5A1F5
Copy CRC D2D5A1F5
Track not present in AccurateRip database
Copy OK

Track 10

Filename C:\Duane Allman - An Anthology, Vol II (1974) [2CD] {2008 SHM-CD Japan Mini LP Edition}\CD2\10 - Midnight Rider.wav

Pre-gap length 0:00:01.53

Peak level 99.9 %
Track quality 100.0 %
Test CRC 6AB259CC
Copy CRC 6AB259CC
Track not present in AccurateRip database
Copy OK


None of the tracks are present in the AccurateRip database

No errors occurred

End of status report

FileSonic Linkz

or

FileServe Linkz

p.s. the files are interchangeable…

pass: ruskaval

No Mirror, plz!