Subcategories

Duke Ellington - The 1962 MOMA Recital - Piano Solo & Trio (2010) {La Maison du Duke MDD 001}

Posted By: ruskaval
Duke Ellington - The 1962 MOMA Recital - Piano Solo & Trio (2010) {La Maison du Duke MDD 001}

Duke Ellington - The 1962 MOMA Recital - Piano Solo & Trio (2010) {La Maison du Duke MDD 001}
EAC rip (secure mode) | FLAC (tracks)+CUE+LOG -> 229 Mb | MP3 @320 -> 170 Mb
Full Artwork @ 600 dpi (jpg) -> 17 Mb | 5% repair rar
© 1962, 2010 La Maison du Duke | MDD 001
Jazz / Mainstream Jazz / Piano

La Maison du Duke is proud to present a collection of unpublished recordings of Duke Ellington, which come from an important stock of Ellington archives (Clavié collection), acquired by the association, which only a few collectors had access to today . The CDs are reserved for members of the Maison du Duke association and are not intended to be marketed.
La Maison du Duke est fière de vous présenter une collection d’enregistrements inédits de Duke Ellington, qui roviennent d’un important stock d’archives ellingtoniennes (collection Clavié), acquis par l’association, auquel seuls quelques collectionneurs avaient accès à ce jour. Tirés en très faible quantité, les CDs sont réservés aux membres de l’association la Maison du Duke et n’ont pas vocation à être commercialisés.
Très rarement, et c’est grand dommage, il arrivait à Duke Ellington de se produire en solo ou en trio. Ces récitals, qu’on peut compter sur les doigts d’une main, lui donnaient l’occasion de sortir de la routine des concerts quotidiens avec orchestre. Il fouillait dans sa mémoire, manifestement inépuisable, pour en sortir des raretés souvent inouïes. Ce sont de beaux moments de musique pure, servis par un interprète qui possédait comme personne le grand art de faire sonner le piano dans toute sa plénitude. Document peu commun et d’une beauté transcendante. Enjoy!

La Maison du Duke INFO

Personnel:
Duke Ellington - piano
Aaron Bell - bass
Sam Woodyard - drums

tracklist:
01 - New York City Blues
02 - Blue Belles Of Harlem
03 - The Clothed Woman
04 - Melancholia
05 - Janet
06 - Reflections In D
07 - There Was Nobody Looking
08 - New World A-Comin'
09 - Take The ''A'' Train
10 - Lotus Blossom
11 - Satin Doll
12 - Single Petal Of A Rose
13 - Kinda Dukish
14 - Medley
15 - Dancers In Love

Exact Audio Copy V1.1 from 23. June 2015

EAC extraction logfile from 16. October 2016, 17:32

Duke Ellington / The 1962 MOMA Recital - Piano Solo & Trio

Used drive : TSSTcorpCDDVDW SE-208DB Adapter: 1 ID: 2

Read mode : Secure
Utilize accurate stream : Yes
Defeat audio cache : Yes
Make use of C2 pointers : No

Read offset correction : 6
Overread into Lead-In and Lead-Out : No
Fill up missing offset samples with silence : Yes
Delete leading and trailing silent blocks : No
Null samples used in CRC calculations : Yes
Used interface : Native Win32 interface for Win NT & 2000
Gap handling : Appended to previous track

Used output format : User Defined Encoder
Selected bitrate : 1024 kBit/s
Quality : High
Add ID3 tag : No
Command line compressor : C:\Program Files (x86)\FLAC Frontend\tools\flac.exe
Additional command line options : -8 -V -T "ARTIST=%artist%" -T "TITLE=%title%" -T "ALBUM=%albumtitle%" -T "DATE=%year%" -T "TRACKNUMBER=%tracknr%" -T "TOTALTRACKS=%numtracks%" -T "GENRE=%genre%" -T "ALBUMARTIST=%albumartist%" -T "ALBUM ARTIST=%albumartist%" -T "COMMENT=EAC Secure Mode, Test & Copy, AccurateRip, FLAC -8" %source%


TOC of the extracted CD

Track | Start | Length | Start sector | End sector
––––––––––––––––––––––––––––-
1 | 0:00.00 | 5:12.15 | 0 | 23414
2 | 5:12.15 | 4:45.41 | 23415 | 44830
3 | 9:57.56 | 4:11.62 | 44831 | 63717
4 | 14:09.43 | 2:15.24 | 63718 | 73866
5 | 16:24.67 | 1:45.31 | 73867 | 81772
6 | 18:10.23 | 4:19.55 | 81773 | 101252
7 | 22:30.03 | 3:48.60 | 101253 | 118412
8 | 26:18.63 | 10:42.05 | 118413 | 166567
9 | 37:00.68 | 5:17.55 | 166568 | 190397
10 | 42:18.48 | 2:52.52 | 190398 | 203349
11 | 45:11.25 | 3:59.64 | 203350 | 221338
12 | 49:11.14 | 3:45.27 | 221339 | 238240
13 | 52:56.41 | 8:59.50 | 238241 | 278715
14 | 61:56.16 | 11:32.65 | 278716 | 330680
15 | 73:29.06 | 2:45.02 | 330681 | 343057


Track 1

Filename D:\_EAC\Duke Ellington - The 1962 MOMA Recital - Piano Solo & Trio (2010) [FLAC] {MDD 001}\01 - New York City Blues.wav

Pre-gap length 0:00:02.00

Peak level 90.1 %
Extraction speed 3.1 X
Track quality 100.0 %
Test CRC 2F91598F
Copy CRC 2F91598F
Track not present in AccurateRip database
Copy OK

Track 2

Filename D:\_EAC\Duke Ellington - The 1962 MOMA Recital - Piano Solo & Trio (2010) [FLAC] {MDD 001}\02 - Blue Belles Of Harlem.wav

Peak level 99.9 %
Extraction speed 3.4 X
Track quality 100.0 %
Test CRC 08594E6B
Copy CRC 08594E6B
Track not present in AccurateRip database
Copy OK

Track 3

Filename D:\_EAC\Duke Ellington - The 1962 MOMA Recital - Piano Solo & Trio (2010) [FLAC] {MDD 001}\03 - The Clothed Woman.wav

Peak level 87.6 %
Extraction speed 3.6 X
Track quality 100.0 %
Test CRC 85C523A9
Copy CRC 85C523A9
Track not present in AccurateRip database
Copy OK

Track 4

Filename D:\_EAC\Duke Ellington - The 1962 MOMA Recital - Piano Solo & Trio (2010) [FLAC] {MDD 001}\04 - Melancholia.wav

Peak level 99.9 %
Extraction speed 3.4 X
Track quality 100.0 %
Test CRC 767155BD
Copy CRC 767155BD
Track not present in AccurateRip database
Copy OK

Track 5

Filename D:\_EAC\Duke Ellington - The 1962 MOMA Recital - Piano Solo & Trio (2010) [FLAC] {MDD 001}\05 - Janet.wav

Peak level 99.9 %
Extraction speed 3.2 X
Track quality 100.0 %
Test CRC DD5F5EC3
Copy CRC DD5F5EC3
Track not present in AccurateRip database
Copy OK

Track 6

Filename D:\_EAC\Duke Ellington - The 1962 MOMA Recital - Piano Solo & Trio (2010) [FLAC] {MDD 001}\06 - Reflections In D.wav

Peak level 99.9 %
Extraction speed 4.0 X
Track quality 100.0 %
Test CRC 0531EA4C
Copy CRC 0531EA4C
Track not present in AccurateRip database
Copy OK

Track 7

Filename D:\_EAC\Duke Ellington - The 1962 MOMA Recital - Piano Solo & Trio (2010) [FLAC] {MDD 001}\07 - There Was Nobody Looking.wav

Peak level 99.9 %
Extraction speed 4.1 X
Track quality 100.0 %
Test CRC 1325499F
Copy CRC 1325499F
Track not present in AccurateRip database
Copy OK

Track 8

Filename D:\_EAC\Duke Ellington - The 1962 MOMA Recital - Piano Solo & Trio (2010) [FLAC] {MDD 001}\08 - New World A-Comin'.wav

Peak level 90.8 %
Extraction speed 4.5 X
Track quality 99.9 %
Test CRC 15BAEF50
Copy CRC 15BAEF50
Track not present in AccurateRip database
Copy OK

Track 9

Filename D:\_EAC\Duke Ellington - The 1962 MOMA Recital - Piano Solo & Trio (2010) [FLAC] {MDD 001}\09 - Take The ''A'' Train.wav

Peak level 99.9 %
Extraction speed 4.2 X
Track quality 99.9 %
Test CRC C1B5CCFA
Copy CRC C1B5CCFA
Track not present in AccurateRip database
Copy OK

Track 10

Filename D:\_EAC\Duke Ellington - The 1962 MOMA Recital - Piano Solo & Trio (2010) [FLAC] {MDD 001}\10 - Lotus Blossom.wav

Peak level 99.9 %
Extraction speed 4.7 X
Track quality 100.0 %
Test CRC 86558833
Copy CRC 86558833
Track not present in AccurateRip database
Copy OK

Track 11

Filename D:\_EAC\Duke Ellington - The 1962 MOMA Recital - Piano Solo & Trio (2010) [FLAC] {MDD 001}\11 - Satin Doll.wav

Peak level 99.3 %
Extraction speed 5.1 X
Track quality 100.0 %
Test CRC 8EC73209
Copy CRC 8EC73209
Track not present in AccurateRip database
Copy OK

Track 12

Filename D:\_EAC\Duke Ellington - The 1962 MOMA Recital - Piano Solo & Trio (2010) [FLAC] {MDD 001}\12 - Single Petal Of A Rose.wav

Peak level 99.9 %
Extraction speed 5.1 X
Track quality 100.0 %
Test CRC 57BC7214
Copy CRC 57BC7214
Track not present in AccurateRip database
Copy OK

Track 13

Filename D:\_EAC\Duke Ellington - The 1962 MOMA Recital - Piano Solo & Trio (2010) [FLAC] {MDD 001}\13 - Kinda Dukish.wav

Peak level 99.9 %
Extraction speed 5.8 X
Track quality 100.0 %
Test CRC C137174D
Copy CRC C137174D
Track not present in AccurateRip database
Copy OK

Track 14

Filename D:\_EAC\Duke Ellington - The 1962 MOMA Recital - Piano Solo & Trio (2010) [FLAC] {MDD 001}\14 - Medley.wav

Peak level 96.7 %
Extraction speed 5.7 X
Track quality 99.9 %
Test CRC 3BEE745D
Copy CRC 3BEE745D
Track not present in AccurateRip database
Copy OK

Track 15

Filename D:\_EAC\Duke Ellington - The 1962 MOMA Recital - Piano Solo & Trio (2010) [FLAC] {MDD 001}\15 - Dancers In Love.wav

Peak level 99.9 %
Extraction speed 4.1 X
Track quality 99.9 %
Test CRC B5DABA4A
Copy CRC B5DABA4A
Track not present in AccurateRip database
Copy OK


None of the tracks are present in the AccurateRip database

No errors occurred

End of status report

==== Log checksum 378580D87D2541F3CCCE30463BE7C28ADA4DEF1FB2C02EC87923FEF155EAA893 ====


Duke Ellington - The 1962 MOMA Recital - Piano Solo & Trio (2010) {La Maison du Duke MDD 001}

Duke Ellington - The 1962 MOMA Recital - Piano Solo & Trio (2010) {La Maison du Duke MDD 001}


NEXT -> DUKE ELLINGTON - Stockholm, June 1963 (2010) {La Maison du Duke MDD 002}

===