Subcategories

Duke Ellington - Stockholm, June 1963 (2012) {La Maison du Duke MDD 002}

Posted By: ruskaval
Duke Ellington - Stockholm, June 1963 (2012) {La Maison du Duke MDD 002}

Duke Ellington - Stockholm, June 1963 (2012) {La Maison du Duke MDD 002}
EAC rip (secure mode) | FLAC (tracks)+CUE+LOG -> 302 Mb | MP3 @320 -> 183 Mb
Full Artwork @ 600 dpi (jpg) -> 15 Mb | 5% repair rar
© 1963, 2012 La Maison du Duke | MDD 002
Jazz / Mainstream Jazz / Big Band / Piano

La Maison du Duke is proud to present a collection of unpublished recordings of Duke Ellington, which come from an important stock of Ellington archives (Clavié collection), acquired by the association, which only a few collectors had access to today . The CDs are reserved for members of the Maison du Duke association and are not intended to be marketed.

La Maison du Duke est fière de vous présenter une collection d’enregistrements inédits de Duke Ellington, qui roviennent d’un important stock d’archives ellingtoniennes (collection Clavié), acquis par l’association, auquel seuls quelques collectionneurs avaient accès à ce jour. Tirés en très faible quantité, les CDs sont réservés aux membres de l’association la Maison du Duke et n’ont pas vocation à être commercialisés.

L’année 1963 fut un riche cuvée pour l’orchestre d’Ellington, entre une longue tournée européenne du 9 janvier au 4 mars et une non moins longue vadrouille au Moyen-Orient et en Asie, du 6 septembre au 22 novembre, de Damas à Bombay en passant par Bagdad, Téhéran et Kaboul…on croit rêver ! On sait moins que l’orchestre revint en Europe au printemps et passa le plus clair du mois de juin en Suède. Du 4 au 9 le Duc et ses hommes jouèrent ainsi dans un parc d’attraction de Stockholm dans une ambiance si chaleureuse, détendue et informelle que l’enregistrement de la soirée du 8, dont nous vous offrons ici de copieux extraits (la plupart inédits, tout au moins en CD) constitue l’exemple parfait de ce qu’on souhaiterait entendre plus souvent en disque. Une musique jouée avec flamme, joie et enthousiasme, parfois mal léchée, bourrée de surprises et de moments de pure folie…

La Maison du Duke INFO

tracklist:
01 - Take The ''A'' Train
02 - Jeep's Blues
03 - Rose Of The Rio Grande
04 - Kinda Dukish - Rockin' In Rhythm
05 - In A Sentimental Mood
06 - Mr Gentle And Mr Cool
07 - I Let A Song Go Out Of My Heart - Don't Get Around Much Anymore
08 - Entr'acte
09 - I Didn't Know About You
10 - Suite Thursday, 1st mouv.- Misfit Blues
11 - Suite Thursday, 2nd mouv.- Schwiphti
12 - Suite Thursday, 3rd mouv.- Sweet Zurzday
13 - Suite Thursday, 4th mouv.- Lay-By
14 - Laura
15 - Afro-Bossa

Exact Audio Copy V1.1 from 23. June 2015

EAC extraction logfile from 23. February 2017, 20:08

Duke Ellington / Stockholm, June 1963

Used drive : TSSTcorpCDDVDW SE-208DB Adapter: 1 ID: 2

Read mode : Secure
Utilize accurate stream : Yes
Defeat audio cache : Yes
Make use of C2 pointers : No

Read offset correction : 6
Overread into Lead-In and Lead-Out : No
Fill up missing offset samples with silence : Yes
Delete leading and trailing silent blocks : No
Null samples used in CRC calculations : Yes
Used interface : Native Win32 interface for Win NT & 2000
Gap handling : Appended to previous track

Used output format : User Defined Encoder
Selected bitrate : 1024 kBit/s
Quality : High
Add ID3 tag : No
Command line compressor : C:\Program Files (x86)\FLAC Frontend\tools\flac.exe
Additional command line options : -8 -V -T "ARTIST=%artist%" -T "TITLE=%title%" -T "ALBUM=%albumtitle%" -T "DATE=%year%" -T "TRACKNUMBER=%tracknr%" -T "TOTALTRACKS=%numtracks%" -T "GENRE=%genre%" -T "ALBUMARTIST=%albumartist%" -T "ALBUM ARTIST=%albumartist%" -T "COMMENT=EAC Secure Mode, Test & Copy, AccurateRip, FLAC -8" %source%


TOC of the extracted CD

Track | Start | Length | Start sector | End sector
––––––––––––––––––––––––––––-
1 | 0:00.00 | 7:25.65 | 0 | 33439
2 | 7:25.65 | 4:54.60 | 33440 | 55549
3 | 12:20.50 | 3:16.01 | 55550 | 70250
4 | 15:36.51 | 7:25.15 | 70251 | 103640
5 | 23:01.66 | 3:59.61 | 103641 | 121626
6 | 27:01.52 | 8:01.30 | 121627 | 157731
7 | 35:03.07 | 3:47.48 | 157732 | 174804
8 | 38:50.55 | 6:17.13 | 174805 | 203092
9 | 45:07.68 | 3:43.28 | 203093 | 219845
10 | 48:51.21 | 5:03.61 | 219846 | 242631
11 | 53:55.07 | 3:00.28 | 242632 | 256159
12 | 56:55.35 | 3:44.05 | 256160 | 272964
13 | 60:39.40 | 8:15.12 | 272965 | 310101
14 | 68:54.52 | 4:06.10 | 310102 | 328561
15 | 73:00.62 | 4:33.03 | 328562 | 349039


Track 1

Filename D:\_EAC\Duke Ellington - Stockholm, June 1963 (2012) [FLAC] {La Maison du Duke MDD 002}\01 - Take The ''A'' Train.wav

Pre-gap length 0:00:02.00

Peak level 82.2 %
Extraction speed 2.9 X
Track quality 99.9 %
Test CRC CE41508E
Copy CRC CE41508E
Track not present in AccurateRip database
Copy OK

Track 2

Filename D:\_EAC\Duke Ellington - Stockholm, June 1963 (2012) [FLAC] {La Maison du Duke MDD 002}\02 - Jeep's Blues.wav

Peak level 67.0 %
Extraction speed 2.9 X
Track quality 99.9 %
Test CRC 3A6C603E
Copy CRC 3A6C603E
Track not present in AccurateRip database
Copy OK

Track 3

Filename D:\_EAC\Duke Ellington - Stockholm, June 1963 (2012) [FLAC] {La Maison du Duke MDD 002}\03 - Rose Of The Rio Grande.wav

Peak level 69.2 %
Extraction speed 3.6 X
Track quality 100.0 %
Test CRC 49E3DB1C
Copy CRC 49E3DB1C
Track not present in AccurateRip database
Copy OK

Track 4

Filename D:\_EAC\Duke Ellington - Stockholm, June 1963 (2012) [FLAC] {La Maison du Duke MDD 002}\04 - Kinda Dukish - Rockin' In Rhythm.wav

Peak level 54.1 %
Extraction speed 3.7 X
Track quality 99.9 %
Test CRC 09398AB5
Copy CRC 09398AB5
Track not present in AccurateRip database
Copy OK

Track 5

Filename D:\_EAC\Duke Ellington - Stockholm, June 1963 (2012) [FLAC] {La Maison du Duke MDD 002}\05 - In A Sentimental Mood.wav

Peak level 87.4 %
Extraction speed 4.2 X
Track quality 100.0 %
Test CRC 47052E41
Copy CRC 47052E41
Track not present in AccurateRip database
Copy OK

Track 6

Filename D:\_EAC\Duke Ellington - Stockholm, June 1963 (2012) [FLAC] {La Maison du Duke MDD 002}\06 - Mr Gentle And Mr Cool.wav

Peak level 82.1 %
Extraction speed 4.2 X
Track quality 99.9 %
Test CRC ED077A4A
Copy CRC ED077A4A
Track not present in AccurateRip database
Copy OK

Track 7

Filename D:\_EAC\Duke Ellington - Stockholm, June 1963 (2012) [FLAC] {La Maison du Duke MDD 002}\07 - I Let A Song Go Out Of My Heart - Don't Get Around Much Anymore.wav

Pre-gap length 0:00:00.01

Peak level 94.1 %
Extraction speed 4.6 X
Track quality 100.0 %
Test CRC 8647EA62
Copy CRC 8647EA62
Track not present in AccurateRip database
Copy OK

Track 8

Filename D:\_EAC\Duke Ellington - Stockholm, June 1963 (2012) [FLAC] {La Maison du Duke MDD 002}\08 - Entr'acte.wav

Peak level 53.9 %
Extraction speed 4.4 X
Track quality 99.9 %
Test CRC CF49DA11
Copy CRC CF49DA11
Track not present in AccurateRip database
Copy OK

Track 9

Filename D:\_EAC\Duke Ellington - Stockholm, June 1963 (2012) [FLAC] {La Maison du Duke MDD 002}\09 - I Didn't Know About You.wav

Peak level 48.5 %
Extraction speed 5.0 X
Track quality 100.0 %
Test CRC 6DB28AA2
Copy CRC 6DB28AA2
Track not present in AccurateRip database
Copy OK

Track 10

Filename D:\_EAC\Duke Ellington - Stockholm, June 1963 (2012) [FLAC] {La Maison du Duke MDD 002}\10 - Suite Thursday, 1st mouv.- Misfit Blues.wav

Peak level 68.4 %
Extraction speed 5.3 X
Track quality 100.0 %
Test CRC 527AF165
Copy CRC 527AF165
Track not present in AccurateRip database
Copy OK

Track 11

Filename D:\_EAC\Duke Ellington - Stockholm, June 1963 (2012) [FLAC] {La Maison du Duke MDD 002}\11 - Suite Thursday, 2nd mouv.- Schwiphti.wav

Peak level 85.4 %
Extraction speed 5.1 X
Track quality 100.0 %
Test CRC 9535F39D
Copy CRC 9535F39D
Track not present in AccurateRip database
Copy OK

Track 12

Filename D:\_EAC\Duke Ellington - Stockholm, June 1963 (2012) [FLAC] {La Maison du Duke MDD 002}\12 - Suite Thursday, 3rd mouv.- Sweet Zurzday.wav

Peak level 85.5 %
Extraction speed 4.2 X
Track quality 99.9 %
Test CRC 0A423F52
Copy CRC 0A423F52
Track not present in AccurateRip database
Copy OK

Track 13

Filename D:\_EAC\Duke Ellington - Stockholm, June 1963 (2012) [FLAC] {La Maison du Duke MDD 002}\13 - Suite Thursday, 4th mouv.- Lay-By.wav

Pre-gap length 0:00:00.01

Peak level 77.9 %
Extraction speed 6.0 X
Track quality 100.0 %
Test CRC C97E13F1
Copy CRC C97E13F1
Track not present in AccurateRip database
Copy OK

Track 14

Filename D:\_EAC\Duke Ellington - Stockholm, June 1963 (2012) [FLAC] {La Maison du Duke MDD 002}\14 - Laura.wav

Peak level 73.3 %
Extraction speed 5.8 X
Track quality 100.0 %
Test CRC 08D8B606
Copy CRC 08D8B606
Track not present in AccurateRip database
Copy OK

Track 15

Filename D:\_EAC\Duke Ellington - Stockholm, June 1963 (2012) [FLAC] {La Maison du Duke MDD 002}\15 - Afro-Bossa.wav

Peak level 71.9 %
Extraction speed 6.1 X
Track quality 100.0 %
Test CRC 6CD4B03E
Copy CRC 6CD4B03E
Track not present in AccurateRip database
Copy OK


None of the tracks are present in the AccurateRip database

No errors occurred

End of status report

==== Log checksum 6F08B329BF66033362F2E9C60AEE86C649D0B6A06848FF37612AF4A7896090AE ====


Duke Ellington - Stockholm, June 1963 (2012) {La Maison du Duke MDD 002}

Duke Ellington - Stockholm, June 1963 (2012) {La Maison du Duke MDD 002}


see also:
Duke Ellington - The 1962 MOMA Recital - Piano Solo & Trio (2010) {La Maison du Duke MDD 001}


NEXT -> Duke Ellington - Paris, March 1964 {La Maison du Duke MDD 003}

===