Subcategories

Duke Pearson - The Right Touch (1967)

Posted By: intothe
Duke Pearson - The Right Touch (1967)

Duke Pearson - The Right Touch (1967)
Jazz | EAC rip (FLAC+CUE+LOG) | 271 MB | full artwork
Blue Note (1994) | 43:00 | RAR with 5% recovery


EAC extraction logfile from 21. October 2010, 20:09

Duke Pearson / The Right Touch

Used drive : _NEC DVD_RW ND-3500AG Adapter: 0 ID: 0

Read mode : Secure
Utilize accurate stream : Yes
Defeat audio cache : Yes
Make use of C2 pointers : No

Read offset correction : 48
Overread into Lead-In and Lead-Out : No
Fill up missing offset samples with silence : Yes
Delete leading and trailing silent blocks : No
Null samples used in CRC calculations : Yes
Used interface : Native Win32 interface for Win NT & 2000

Used output format : User Defined Encoder
Selected bitrate : 768 kBit/s
Quality : High
Add ID3 tag : No
Command line compressor : C:\Program Files\Exact Audio Copy\FLAC\FLAC.EXE
Additional command line options : -6 -V -T "ARTIST=%a" -T "TITLE=%t" -T "ALBUM=%g" -T "DATE=%y" -T "TRACKNUMBER=%n" -T "GENRE=%m" -T "COMMENT=%e" %s -o %d


TOC of the extracted CD

Track | Start | Length | Start sector | End sector
––––––––––––––––––––––––––––-
1 | 0:00.00 | 6:56.73 | 0 | 31272
2 | 6:56.73 | 6:43.35 | 31273 | 61532
3 | 13:40.33 | 5:57.37 | 61533 | 88344
4 | 19:37.70 | 6:36.65 | 88345 | 118109
5 | 26:14.60 | 5:24.08 | 118110 | 142417
6 | 31:38.68 | 6:19.27 | 142418 | 170869
7 | 37:58.20 | 5:02.45 | 170870 | 193564


Range status and errors

Selected range

Filename J:\eMusic\Rip\Duke Pearson - The Right Touch.wav

Peak level 96.5 %
Range quality 100.0 %
Test CRC F52AE809
Copy CRC F52AE809
Copy OK

No errors occurred


AccurateRip summary

Track 1 cannot be verified as accurate (confidence 1) [FD071DF5], AccurateRip returned [637147FD]
Track 2 cannot be verified as accurate (confidence 1) [760B923E], AccurateRip returned [0C42FF6F]
Track 3 cannot be verified as accurate (confidence 1) [E264C891], AccurateRip returned [F9C8D63E]
Track 4 cannot be verified as accurate (confidence 1) [6B9A7569], AccurateRip returned [3C8BC395]
Track 5 cannot be verified as accurate (confidence 1) [ED0D977A], AccurateRip returned [B02FA678]
Track 6 cannot be verified as accurate (confidence 1) [F8ED11B9], AccurateRip returned [0BA44221]
Track 7 cannot be verified as accurate (confidence 1) [3F06AF59], AccurateRip returned [6A83A113]

No tracks could be verified as accurate
You may have a different pressing from the one(s) in the database

End of status report


Duke Pearson rises to the challenge of writing for an all-star octet (with trumpeter Freddie Hubbard, trombonist Garnett Brown, altoist James Spaulding, Jerry Dodgion on alto and flute, Stanley Turrentine on tenor, bassist Gene Taylor, drummer Grady Tate, and the leader/pianist), contributing colorful frameworks and consistently challenging compositions. The set is full of diverse melodies (the CD reissue has a previously unissued take of "Los Malos Hombres") played by a variety of distinctive soloists; many of these songs deserve to be revived. This is one of the finest recordings of Duke Pearson's career. - by Scott Yanow, AMG

Tracks:
1. Chili Peppers 6:56
2. Make It Good 6:43
3. My Love Waits (O Meu Amor Espera) 5:57
4. Los Malos Hombres 6:36
5. Scrap Iron 5:24
6. Rotary 6:19
7. Lol Malos Hombres (Alternate Take) 5:01
All compositions by Duke Pearson

Personnel:
Duke Pearson (Piano)
Freddie Hubbard (Trumpet)
Garnett Brown (Trombone)
James Spaulding (Alto Saxophone)
Jerry Dodgion (Alto Saxophone and Flute)
Stanley Turrentine (Tenor Saxophone)
Gene Taylor (Double Bass)
Grady Tate (Drums)

reup: 22 October 2010

Fileserve:
Part 1 - Part 2
Hotfile:
Part 1 - Part 2
Rapidshare:
Part 1 - Part 2
pw: into