Subcategories

Duran Duran - Thank You (1995) {Japanese 1st Pressing}

Posted By: ruskaval
Duran Duran - Thank You (1995) {Japanese 1st Pressing}

Duran Duran - Thank You (1995) [FLAC] {Japanese 1st Pressing}
EAC rip (secure mode) | FLAC+CUE+LOG -> 454 Mb | MP3 @320 -> 155 Mb
Full Artwork @ 600 dpi (jpg) -> 241 Mb
© 1997 EMI / Toshiba | TOCP-8195
Pop / New Romantic / Adult Alternative Rock / Dance Rock / Synth Pop

An album of Duran Duran covering their "influences" was never something even the most dedicated fan wanted to hear, yet the band had the audacity to record Thank You, a collection of the group's favorite songs. Featuring songwriters as diverse as Bob Dylan and Sly Stone, Thank You works best when the band realizes the monumental silliness of its cover, as on "White Lines," which is performed with Grandmaster Flash himself, and the acoustic blues rendition of Public Enemy's "911 Is a Joke."

Or it works when the band can reinvent material like Lou Reed's "Perfect Day" into a slick MOR ballad. When Thank You doesn't work, it's because the band doesn't quite get what made the original version special ("Lay Lady Lay" and "Watching the Detectives"). Too many plain, mediocre songs (the Doors' "Crystal Ship") prevent the album from being either unintentionally funny or genuinely successful. The record is solely a curiosity and not a very interesting one at that.
tracklist:
01. White Lines
02. I Wanna Take You Higher
03. Perfect Day
04. Watching The Detectives
05. Lay Lady Lay
06. 911 Is A Joke
07. Success
08. Crystal Ship
09. Ball Of Confusion
10. Thank You
11. Drive By
12. I Wanna Take You Higher Again
13. Diamond Dogs (bonus track)
14. Femme Fatale (bonus track)

Duran Duran - Thank You (1995) {Japanese 1st Pressing}

EAC extraction logfile from 10. June 2007, 2:11 for CD
Duran Duran / Thank You (Japanese 1st Pressing)

Used drive : PLEXTOR DVDR PX-760A Adapter: 3 ID: 0
Read mode : Secure with NO C2, accurate stream, disable cache
Read offset correction : 30
Overread into Lead-In and Lead-Out : No

Used output format : Internal WAV Routines
44.100 Hz; 16 Bit; Stereo

Other options :
Fill up missing offset samples with silence : Yes
Delete leading and trailing silent blocks : No
Native Win32 interface for Win NT & 2000


Track 1
Filename E:\– Lossless Rips –\Duran Duran - Thank You (Japanese 1st Pressing)\01 - White Lines.wav

Pre-gap length 0:00:02.00

Peak level 99.6 %
Track quality 100.0 %
Test CRC E1FE4BAB
Copy CRC E1FE4BAB
Copy OK

Track 2
Filename E:\– Lossless Rips –\Duran Duran - Thank You (Japanese 1st Pressing)\02 - I Wanna Take You Higher.wav

Peak level 99.6 %
Track quality 100.0 %
Test CRC F06EED36
Copy CRC F06EED36
Copy OK

Track 3
Filename E:\– Lossless Rips –\Duran Duran - Thank You (Japanese 1st Pressing)\03 - Perfect Day.wav

Peak level 98.6 %
Track quality 100.0 %
Test CRC 4CB1C1B6
Copy CRC 4CB1C1B6
Copy OK

Track 4
Filename E:\– Lossless Rips –\Duran Duran - Thank You (Japanese 1st Pressing)\04 - Watching The Detectives.wav

Peak level 99.6 %
Track quality 100.0 %
Test CRC E1279FA2
Copy CRC E1279FA2
Copy OK

Track 5
Filename E:\– Lossless Rips –\Duran Duran - Thank You (Japanese 1st Pressing)\05 - Lay Lady Lay.wav

Peak level 99.6 %
Track quality 99.9 %
Test CRC F1781623
Copy CRC F1781623
Copy OK

Track 6
Filename E:\– Lossless Rips –\Duran Duran - Thank You (Japanese 1st Pressing)\06 - 911 Is A Joke.wav

Peak level 99.6 %
Track quality 100.0 %
Test CRC C003CA00
Copy CRC C003CA00
Copy OK

Track 7
Filename E:\– Lossless Rips –\Duran Duran - Thank You (Japanese 1st Pressing)\07 - Success.wav

Peak level 99.6 %
Track quality 99.9 %
Test CRC 8D35DC8C
Copy CRC 8D35DC8C
Copy OK

Track 8
Filename E:\– Lossless Rips –\Duran Duran - Thank You (Japanese 1st Pressing)\08 - Crystal Ship.wav

Pre-gap length 0:00:00.76

Peak level 99.6 %
Track quality 100.0 %
Test CRC 4369970B
Copy CRC 4369970B
Copy OK

Track 9
Filename E:\– Lossless Rips –\Duran Duran - Thank You (Japanese 1st Pressing)\09 - Ball Of Confusion.wav

Pre-gap length 0:00:00.25

Peak level 99.6 %
Track quality 100.0 %
Test CRC 50C0C07B
Copy CRC 50C0C07B
Copy OK

Track 10
Filename E:\– Lossless Rips –\Duran Duran - Thank You (Japanese 1st Pressing)\10 - Thank You.wav

Peak level 100.0 %
Track quality 100.0 %
Test CRC 17AC30F0
Copy CRC 17AC30F0
Copy OK

Track 11
Filename E:\– Lossless Rips –\Duran Duran - Thank You (Japanese 1st Pressing)\11 - Drive By.wav

Peak level 97.1 %
Track quality 100.0 %
Test CRC 7B430F06
Copy CRC 7B430F06
Copy OK

Track 12
Filename E:\– Lossless Rips –\Duran Duran - Thank You (Japanese 1st Pressing)\12 - I Wanna Take You Higher Again.wav

Pre-gap length 0:00:01.76

Peak level 99.3 %
Track quality 100.0 %
Test CRC 560C7E45
Copy CRC 560C7E45
Copy OK

Track 13
Filename E:\– Lossless Rips –\Duran Duran - Thank You (Japanese 1st Pressing)\13 - Diamond Dogs.wav

Pre-gap length 0:00:00.34

Peak level 99.6 %
Track quality 100.0 %
Test CRC C8D0D25D
Copy CRC C8D0D25D
Copy OK

Track 14
Filename E:\– Lossless Rips –\Duran Duran - Thank You (Japanese 1st Pressing)\14 - Femme Fatale.wav

Pre-gap length 0:00:00.17

Peak level 100.0 %
Track quality 100.0 %
Test CRC 2D88C7AE
Copy CRC 2D88C7AE
Copy OK

No errors occured


End of status report


All credits to bigsimon!

dead links -> send me a Private Message…

FileSonic Linkz

or

FileServe Linkz

p.s. the files are interchangeable…

No Mirror, plz!