Subcategories

Bob Dylan, Johnny Cash, and The Nashville Cats - A New Music City (2015) [2CD] {Legacy}

Posted By: ruskaval
Bob Dylan, Johnny Cash, and The Nashville Cats - A New Music City (2015) [2CD] {Legacy}

Bob Dylan, Johnny Cash, and The Nashville Cats - A New Music City (2015) [2CD] {Legacy}
EAC rip (secure mode) | FLAC (tracks)+CUE+LOG -> 728 Mb | MP3 @320 -> 275 Mb
Full Artwork @ 600 dpi (jpg) -> 59 Mb | 5% repair rar
© 2015 Legacy / Sony Music | 88875066552
Country / Country-Rock / Progressive Country

A companion to the 2015-2016 Country Music Hall of Fame exhibit of the same name, Dylan, Cash and the Nashville Cats: A New Music City is a double-disc history of the moment when country met rock – or when rock met country, as the case might be. In this particular reading of country-rock history, the movement begins in 1966, when Bob Dylan headed down to Nashville to cut Blonde on Blonde with a crew of the city's renowned studio musicians. Prior to that, country could be heard in rock & roll mainly through rockabilly, a music that functions as prehistory on this collection, present through the presence of Sun veteran Johnny Cash but not much else.
Bob Dylan, Johnny Cash, and The Nashville Cats - A New Music City (2015) [2CD] {Legacy}

Rockabilly's absence isn't surprising – it was a hillbilly music that belonged to the '50s and seemed nearly ancient in 1966 – but by starting country-rock history in 1966, Dylan, Cash and the Nashville Cats circumvents the conventional narrative of how the fusion allegedly sprang fully formed from the imagination of Californian cosmic cowboy Gram Parsons. He shows up here with the Byrds, singing "Hickory Wind," but that arrives 15 cuts deep into the first disc, by which time the Monkees have been heard playing a lean country shuffle on "Some of Shelly's Blues," John Hartford eased into "Gentle on My Mind," Gordon Lightfoot etched some roots-psychedelia on "The Way I Feel," and Flatt & Scruggs, Ian & Sylvia, and Johnny Cash have all sung a Bob Dylan song. Cash's cut dates from 1964, underscoring how this compilation doesn't follow a strict chronological order; rather, it skips through two specific eras, concentrating on the '60s on the first disc and the '70s on the second. This divide also slightly skews toward showcasing Dylan on the initial disc and his influence on the latter, with the second disc filled with progressive folk singer/songwriters (Steve Goodman, Eric Andersen, Jerry Jeff Walker) and rockers who made a Music City pilgrimage not dissimilar to Bob's (Neil Young, J.J. Cale, Steve Miller, Paul McCartney).

Bob Dylan, Johnny Cash, and The Nashville Cats - A New Music City (2015) [2CD] {Legacy}


Certainly, the songs do matter – country musicians were attracted to Dylan's songs, with several discovering elements in their own voices after hearing his songs – but so do those Nashville Cats, the then-faceless pros who are placed on equal billing with Dylan and Cash in this exhibit and compilation. Sometimes, they get their own showcase – Charlie McCoy rocks hard on "Harpoon Man," the supergroup Area Code 615 lays it down on "Stone Fox Chase," which some listeners may know better as the theme to The Old Grey Whistle Test – but they're always felt throughout the performances here, lending soul and surprise to familiar tunes and grounding flights of fancy through down-home licks. Throughout it all, that conscious cultural collision of city and country still feels kinetic: these musicians opened up fresh, unpaved roads begging to be explored and still offer plenty of tantalizing sights and detours.
Bob Dylan, Johnny Cash, and The Nashville Cats - A New Music City (2015) [2CD] {Legacy}


More INFO

tracklist:
Disc 1

01. Absolutely Sweet Marie – Bob Dylan
02. Harpoon Man – Charlie McCoy & the Escorts
03. It Ain't Me, Babe – Johnny Cash
04. Down in the Flood – Flatt & Scruggs
05. The Way I Feel – Gordon Lightfoot
06. I'll Be Your Baby Tonight – Bob Dylan
07. You Ain't Goin' Nowhere – The Byrds
08. This Wheel's on Fire – Ian & Sylvia
09. Gentle on My Mind – John Hartford
10. Some of Shelly's Blues – The Monkees
11. Turn Around – The Beau Brummels
12. I'm So Lonesome I Could Cry – Tracy Nelson
13. If You Don't Like Hank Williams (1968 Demo) – Kris Kristofferson
14. Bird on The Wire – Leonard Cohen
15. Hickory Wind – The Byrds
16. Blowing Down That Dusty Road – Country Joe McDonald
17. The Boxer – Simon & Garfunkel
18. Stone Fox Chase – Area Code 615
19. The Byrds Sweetheart of the Rodeo Radio Ad (Bonus Track)

Bob Dylan, Johnny Cash, and The Nashville Cats - A New Music City (2015) [2CD] {Legacy}


Disc 2
01. Girl from the North Country – Bob Dylan with Johnny Cash
02. Driftin' Way of Life – Jerry Jeff Walker
03. Behind That Locked Door – George Harrison
04. Beaucoups of Blues – Ringo Starr
05. Going to the Country – Steve Miller Band
06. The Night They Drove Old Dixie Down – Joan Baez
07. City of New Orleans – Steve Goodman
08. Blue River – Eric Andersen
09. Heart of Gold – Neil Young
10. If Not for You (previously unreleased version) – Bob Dylan
11. Crazy Mama – J.J. Cale
12. Seven Bridges Road (1972 Nashville Version) – Steve Young
13. Will the Circle Be Unbroken – Nitty Gritty Dirt Band
14. Silver Wings – Earl Scruggs with Linda Ronstadt
15. A Six Pack to Go – Leon Russell (as Hank Wilson)
16. Sally G – Paul McCartney & Wings
17. Matchbox (Live on the Johnny Cash Show) – Derek & The Dominos with Johnny Cash and Carl Perkins

Bob Dylan, Johnny Cash, and The Nashville Cats - A New Music City (2015) [2CD] {Legacy}


Exact Audio Copy V1.0 beta 4 from 7. December 2014

EAC extraction logfile from 9. July 2015, 12:39

Various Artists / Dylan, Cash and The Nashville Cats: A New Music City (Disc 1)

Used drive : TSSTcorpCDDVDW SN-208FB Adapter: 1 ID: 0

Read mode : Secure
Utilize accurate stream : Yes
Defeat audio cache : Yes
Make use of C2 pointers : No

Read offset correction : 6
Overread into Lead-In and Lead-Out : No
Fill up missing offset samples with silence : Yes
Delete leading and trailing silent blocks : No
Null samples used in CRC calculations : Yes
Used interface : Native Win32 interface for Win NT & 2000
Gap handling : Appended to previous track

Used output format : User Defined Encoder
Selected bitrate : 1024 kBit/s
Quality : High
Add ID3 tag : No
Command line compressor : C:\Program Files (x86)\Kodeki za Glasbo\FLAC\flac.exe
Additional command line options : -8 -V -T "ARTIST=%artist%" -T "TITLE=%title%" -T "ALBUM=%albumtitle%" -T "DATE=%year%" -T "TRACKNUMBER=%tracknr%" -T "TOTALTRACKS=%numtracks%" -T "GENRE=%genre%" -T "ALBUMARTIST=%albumartist%" -T "ALBUM ARTIST=%albumartist%" -T "COMMENT=EAC Secure Mode, Test & Copy, AccurateRip, FLAC -8" %source%


TOC of the extracted CD

Track | Start | Length | Start sector | End sector
––––––––––––––––––––––––––––-
1 | 0:00.00 | 4:55.72 | 0 | 22196
2 | 4:55.72 | 2:33.49 | 22197 | 33720
3 | 7:29.46 | 3:02.62 | 33721 | 47432
4 | 10:32.33 | 2:18.33 | 47433 | 57815
5 | 12:50.66 | 3:03.44 | 57816 | 71584
6 | 15:54.35 | 2:39.53 | 71585 | 83562
7 | 18:34.13 | 2:34.71 | 83563 | 95183
8 | 21:09.09 | 3:47.06 | 95184 | 112214
9 | 24:56.15 | 3:04.28 | 112215 | 126042
10 | 28:00.43 | 2:29.18 | 126043 | 137235
11 | 30:29.61 | 3:02.42 | 137236 | 150927
12 | 33:32.28 | 3:08.26 | 150928 | 165053
13 | 36:40.54 | 1:49.24 | 165054 | 173252
14 | 38:30.03 | 3:27.02 | 173253 | 188779
15 | 41:57.05 | 3:32.39 | 188780 | 204718
16 | 45:29.44 | 2:35.25 | 204719 | 216368
17 | 48:04.69 | 5:09.29 | 216369 | 239572
18 | 53:14.23 | 3:27.29 | 239573 | 255126
19 | 56:41.52 | 0:59.74 | 255127 | 259625


Track 1

Filename M:\4. my rip in preparation\3 - in treatment\1\CD1\01 - Bob Dylan - Absolutely Sweet Marie.wav

Pre-gap length 0:00:02.00

Peak level 92.3 %
Extraction speed 1.2 X
Track quality 100.0 %
Test CRC BAECCBE3
Copy CRC BAECCBE3
Track not present in AccurateRip database
Copy OK

Track 2

Filename M:\4. my rip in preparation\3 - in treatment\1\CD1\02 - Charlie McCoy & The Escorts - Harpoon Man.wav

Pre-gap length 0:00:01.29

Peak level 85.1 %
Extraction speed 1.1 X
Track quality 100.0 %
Test CRC 6A53A64A
Copy CRC 6A53A64A
Track not present in AccurateRip database
Copy OK

Track 3

Filename M:\4. my rip in preparation\3 - in treatment\1\CD1\03 - Johnny Cash - I't Ain't Me, Babe.wav

Pre-gap length 0:00:00.70

Peak level 100.0 %
Extraction speed 1.3 X
Track quality 100.0 %
Test CRC 92ED0FCF
Copy CRC 92ED0FCF
Track not present in AccurateRip database
Copy OK

Track 4

Filename M:\4. my rip in preparation\3 - in treatment\1\CD1\04 - Flatt & Scruggs - Down in the Flood.wav

Pre-gap length 0:00:00.30

Peak level 100.0 %
Extraction speed 1.0 X
Track quality 99.9 %
Test CRC 661ADD20
Copy CRC 661ADD20
Track not present in AccurateRip database
Copy OK

Track 5

Filename M:\4. my rip in preparation\3 - in treatment\1\CD1\05 - Gordon Lightfoot - The Way I Feel.wav

Pre-gap length 0:00:01.38

Peak level 100.0 %
Extraction speed 1.2 X
Track quality 99.9 %
Test CRC 66B6CC03
Copy CRC 66B6CC03
Track not present in AccurateRip database
Copy OK

Track 6

Filename M:\4. my rip in preparation\3 - in treatment\1\CD1\06 - Bob Dylan - I'll Be Your Babe Tonight.wav

Pre-gap length 0:00:01.12

Peak level 100.0 %
Extraction speed 1.2 X
Track quality 99.9 %
Test CRC AB12D2F8
Copy CRC AB12D2F8
Track not present in AccurateRip database
Copy OK

Track 7

Filename M:\4. my rip in preparation\3 - in treatment\1\CD1\07 - The Byrds - You Ain't Going Nowhere.wav

Pre-gap length 0:00:00.46

Peak level 99.1 %
Extraction speed 1.5 X
Track quality 100.0 %
Test CRC 58F784F2
Copy CRC 58F784F2
Track not present in AccurateRip database
Copy OK

Track 8

Filename M:\4. my rip in preparation\3 - in treatment\1\CD1\08 - Ian & Sylvia - This Wheel's on Fire.wav

Pre-gap length 0:00:01.25

Peak level 94.8 %
Extraction speed 1.4 X
Track quality 99.9 %
Test CRC 6A05F64D
Copy CRC 6A05F64D
Track not present in AccurateRip database
Copy OK

Track 9

Filename M:\4. my rip in preparation\3 - in treatment\1\CD1\09 - John Hartford - Gentle on My Mind.wav

Pre-gap length 0:00:01.50

Peak level 100.0 %
Extraction speed 1.7 X
Track quality 100.0 %
Test CRC B997557E
Copy CRC B997557E
Track not present in AccurateRip database
Copy OK

Track 10

Filename M:\4. my rip in preparation\3 - in treatment\1\CD1\10 - The Monkees - Some of Shelly's Blues.wav

Pre-gap length 0:00:02.05

Peak level 100.0 %
Extraction speed 1.6 X
Track quality 100.0 %
Test CRC C41D78CB
Copy CRC C41D78CB
Track not present in AccurateRip database
Copy OK

Track 11

Filename M:\4. my rip in preparation\3 - in treatment\1\CD1\11 - The Beau Brummels - Turn Around.wav

Pre-gap length 0:00:00.01

Peak level 86.3 %
Extraction speed 1.5 X
Track quality 99.9 %
Test CRC 9997E138
Copy CRC 9997E138
Track not present in AccurateRip database
Copy OK

Track 12

Filename M:\4. my rip in preparation\3 - in treatment\1\CD1\12 - Tracy Nelson - I'm So Lonesome I Could Cry.wav

Pre-gap length 0:00:00.42

Peak level 100.0 %
Extraction speed 1.8 X
Track quality 100.0 %
Test CRC 35C2505A
Copy CRC 35C2505A
Track not present in AccurateRip database
Copy OK

Track 13

Filename M:\4. my rip in preparation\3 - in treatment\1\CD1\13 - Kris Kristofferson - If You Don't Like Hank Williams (1968 demo).wav

Pre-gap length 0:00:01.94

Peak level 77.3 %
Extraction speed 1.7 X
Track quality 100.0 %
Test CRC D9E8B6FC
Copy CRC D9E8B6FC
Track not present in AccurateRip database
Copy OK

Track 14

Filename M:\4. my rip in preparation\3 - in treatment\1\CD1\14 - Leonard Cohen - Bird on the Wire.wav

Pre-gap length 0:00:01.76

Peak level 91.9 %
Extraction speed 1.9 X
Track quality 100.0 %
Test CRC E1245E49
Copy CRC E1245E49
Track not present in AccurateRip database
Copy OK

Track 15

Filename M:\4. my rip in preparation\3 - in treatment\1\CD1\15 - The Byrds - Hickory Wind.wav

Pre-gap length 0:00:01.30

Peak level 98.8 %
Extraction speed 2.0 X
Track quality 100.0 %
Test CRC 46F3F358
Copy CRC 46F3F358
Track not present in AccurateRip database
Copy OK

Track 16

Filename M:\4. my rip in preparation\3 - in treatment\1\CD1\16 - Country Joe McDonald - Blowing Down That Dusty Road.wav

Pre-gap length 0:00:01.13

Peak level 64.4 %
Extraction speed 1.6 X
Track quality 99.9 %
Test CRC BE0A1200
Copy CRC BE0A1200
Track not present in AccurateRip database
Copy OK

Track 17

Filename M:\4. my rip in preparation\3 - in treatment\1\CD1\17 - Simon & Garfunkel - The Boxer.wav

Pre-gap length 0:00:01.04

Peak level 95.7 %
Extraction speed 2.0 X
Track quality 99.9 %
Test CRC 4D763B30
Copy CRC 4D763B30
Track not present in AccurateRip database
Copy OK

Track 18

Filename M:\4. my rip in preparation\3 - in treatment\1\CD1\18 - Area Code 615 - Stone Fox Chase.wav

Pre-gap length 0:00:00.89

Peak level 81.8 %
Extraction speed 2.2 X
Track quality 100.0 %
Test CRC AC6D1916
Copy CRC AC6D1916
Track not present in AccurateRip database
Copy OK

Track 19

Filename M:\4. my rip in preparation\3 - in treatment\1\CD1\19 - The Byrds - Sweetheart of the Rodeo (radio advertisement) (bonus track).wav

Pre-gap length 0:00:02.05

Peak level 84.2 %
Extraction speed 1.6 X
Track quality 100.0 %
Test CRC D4A15FEE
Copy CRC D4A15FEE
Track not present in AccurateRip database
Copy OK


None of the tracks are present in the AccurateRip database

No errors occurred

End of status report

–– CUETools DB Plugin V2.1.4

[CTDB TOCID: LP8b5OiDGT.XW4T5bg0fKDKigQ0-] found
Submit result: LP8b5OiDGT.XW4T5bg0fKDKigQ0- has been confirmed
Track | CTDB Status
1 | (9/9) Accurately ripped
2 | (9/9) Accurately ripped
3 | (9/9) Accurately ripped
4 | (9/9) Accurately ripped
5 | (9/9) Accurately ripped
6 | (9/9) Accurately ripped
7 | (9/9) Accurately ripped
8 | (9/9) Accurately ripped
9 | (9/9) Accurately ripped
10 | (9/9) Accurately ripped
11 | (9/9) Accurately ripped
12 | (9/9) Accurately ripped
13 | (9/9) Accurately ripped
14 | (9/9) Accurately ripped
15 | (9/9) Accurately ripped
16 | (9/9) Accurately ripped
17 | (9/9) Accurately ripped
18 | (9/9) Accurately ripped
19 | (9/9) Accurately ripped


==== Log checksum 3BC359DE38B688227A797C69252250619BF837E5FE8EFC3514513B4863B1E643 ====

Exact Audio Copy V1.0 beta 4 from 7. December 2014

EAC extraction logfile from 9. July 2015, 22:25

Various Artists / Dylan, Cash and The Nashville Cats: A New Music City (Disc 2)

Used drive : TSSTcorpCDDVDW SN-208FB Adapter: 1 ID: 0

Read mode : Secure
Utilize accurate stream : Yes
Defeat audio cache : Yes
Make use of C2 pointers : No

Read offset correction : 6
Overread into Lead-In and Lead-Out : No
Fill up missing offset samples with silence : Yes
Delete leading and trailing silent blocks : No
Null samples used in CRC calculations : Yes
Used interface : Native Win32 interface for Win NT & 2000
Gap handling : Appended to previous track

Used output format : User Defined Encoder
Selected bitrate : 1024 kBit/s
Quality : High
Add ID3 tag : No
Command line compressor : C:\Program Files (x86)\Kodeki za Glasbo\FLAC\flac.exe
Additional command line options : -8 -V -T "ARTIST=%artist%" -T "TITLE=%title%" -T "ALBUM=%albumtitle%" -T "DATE=%year%" -T "TRACKNUMBER=%tracknr%" -T "TOTALTRACKS=%numtracks%" -T "GENRE=%genre%" -T "ALBUMARTIST=%albumartist%" -T "ALBUM ARTIST=%albumartist%" -T "COMMENT=EAC Secure Mode, Test & Copy, AccurateRip, FLAC -8" %source%


TOC of the extracted CD

Track | Start | Length | Start sector | End sector
––––––––––––––––––––––––––––-
1 | 0:00.00 | 3:42.06 | 0 | 16655
2 | 3:42.06 | 3:25.39 | 16656 | 32069
3 | 7:07.45 | 3:06.21 | 32070 | 46040
4 | 10:13.66 | 2:33.24 | 46041 | 57539
5 | 12:47.15 | 3:46.57 | 57540 | 74546
6 | 16:33.72 | 3:23.49 | 74547 | 89820
7 | 19:57.46 | 3:51.35 | 89821 | 107180
8 | 23:49.06 | 4:46.28 | 107181 | 128658
9 | 28:35.34 | 3:08.36 | 128659 | 142794
10 | 31:43.70 | 2:34.45 | 142795 | 154389
11 | 34:18.40 | 2:23.36 | 154390 | 165150
12 | 36:42.01 | 3:22.64 | 165151 | 180364
13 | 40:04.65 | 4:50.11 | 180365 | 202125
14 | 44:55.01 | 3:28.00 | 202126 | 217725
15 | 48:23.01 | 2:21.11 | 217726 | 228311
16 | 50:44.12 | 3:41.04 | 228312 | 244890
17 | 54:25.16 | 2:48.64 | 244891 | 257554


Track 1

Filename M:\4. my rip in preparation\3 - in treatment\1\CD2\01 - Bob Dylan with Johnny Cash - Girl from the North Country.wav

Pre-gap length 0:00:02.00

Peak level 100.0 %
Extraction speed 0.9 X
Track quality 99.9 %
Test CRC FFD3C36F
Copy CRC FFD3C36F
Track not present in AccurateRip database
Copy OK

Track 2

Filename M:\4. my rip in preparation\3 - in treatment\1\CD2\02 - Jerry Jeff Walker - Driftin' Way of Life.wav

Pre-gap length 0:00:00.73

Peak level 100.0 %
Extraction speed 1.0 X
Track quality 99.9 %
Test CRC 4401BB08
Copy CRC 4401BB08
Track not present in AccurateRip database
Copy OK

Track 3

Filename M:\4. my rip in preparation\3 - in treatment\1\CD2\03 - George Harrison - Behind That Locked Door.wav

Pre-gap length 0:00:01.02

Peak level 90.9 %
Extraction speed 1.1 X
Track quality 99.9 %
Test CRC 1D237A2E
Copy CRC 1D237A2E
Track not present in AccurateRip database
Copy OK

Track 4

Filename M:\4. my rip in preparation\3 - in treatment\1\CD2\04 - Ringo Starr - Beaucoups of Blues.wav

Peak level 100.0 %
Extraction speed 1.2 X
Track quality 100.0 %
Test CRC 4CA03CD6
Copy CRC 4CA03CD6
Track not present in AccurateRip database
Copy OK

Track 5

Filename M:\4. my rip in preparation\3 - in treatment\1\CD2\05 - Steve Miller Band - Going to the Country.wav

Pre-gap length 0:00:01.56

Peak level 80.9 %
Extraction speed 1.3 X
Track quality 99.9 %
Test CRC 36B52E2D
Copy CRC 36B52E2D
Track not present in AccurateRip database
Copy OK

Track 6

Filename M:\4. my rip in preparation\3 - in treatment\1\CD2\06 - Joan Baez - The Night They Drove Old Dixie Down.wav

Pre-gap length 0:00:02.12

Peak level 100.0 %
Extraction speed 1.5 X
Track quality 100.0 %
Test CRC B7EA0D69
Copy CRC B7EA0D69
Track not present in AccurateRip database
Copy OK

Track 7

Filename M:\4. my rip in preparation\3 - in treatment\1\CD2\07 - Steve Goodman - City of New Orleans.wav

Pre-gap length 0:00:00.45

Peak level 73.2 %
Extraction speed 1.6 X
Track quality 100.0 %
Test CRC E464C3EA
Copy CRC E464C3EA
Track not present in AccurateRip database
Copy OK

Track 8

Filename M:\4. my rip in preparation\3 - in treatment\1\CD2\08 - Eric Andersen - Blue River.wav

Pre-gap length 0:00:01.12

Peak level 100.0 %
Extraction speed 1.7 X
Track quality 100.0 %
Test CRC A1E8D853
Copy CRC A1E8D853
Track not present in AccurateRip database
Copy OK

Track 9

Filename M:\4. my rip in preparation\3 - in treatment\1\CD2\09 - Neil Young - Heart of Gold.wav

Pre-gap length 0:00:01.54

Peak level 96.2 %
Extraction speed 1.7 X
Track quality 100.0 %
Test CRC DAAE6DD2
Copy CRC DAAE6DD2
Track not present in AccurateRip database
Copy OK

Track 10

Filename M:\4. my rip in preparation\3 - in treatment\1\CD2\10 - Bob Dylan - If Not for You (previously unreleased).wav

Pre-gap length 0:00:01.37

Peak level 100.0 %
Extraction speed 1.7 X
Track quality 100.0 %
Test CRC 4DBC0E74
Copy CRC 4DBC0E74
Track not present in AccurateRip database
Copy OK

Track 11

Filename M:\4. my rip in preparation\3 - in treatment\1\CD2\11 - J.J. Cale - Crazy Mama.wav

Pre-gap length 0:00:01.05

Peak level 99.5 %
Extraction speed 1.7 X
Track quality 100.0 %
Test CRC 37C1150C
Copy CRC 37C1150C
Track not present in AccurateRip database
Copy OK

Track 12

Filename M:\4. my rip in preparation\3 - in treatment\1\CD2\12 - Steve Young - Seven Bridges Road (1972 Nashville version).wav

Pre-gap length 0:00:01.22

Peak level 94.2 %
Extraction speed 1.6 X
Track quality 99.9 %
Test CRC 6103ECD1
Copy CRC 6103ECD1
Track not present in AccurateRip database
Copy OK

Track 13

Filename M:\4. my rip in preparation\3 - in treatment\1\CD2\13 - Nitty Gritty Dirt Band - Will the Circle Be Unbroken.wav

Pre-gap length 0:00:00.46

Peak level 84.3 %
Extraction speed 1.8 X
Track quality 99.9 %
Test CRC 0A6CB2B7
Copy CRC 0A6CB2B7
Track not present in AccurateRip database
Copy OK

Track 14

Filename M:\4. my rip in preparation\3 - in treatment\1\CD2\14 - Earl Scruggs with Linda Ronstadt - Silver Wings.wav

Pre-gap length 0:00:01.66

Peak level 100.0 %
Extraction speed 2.0 X
Track quality 100.0 %
Test CRC FE5A58DB
Copy CRC FE5A58DB
Track not present in AccurateRip database
Copy OK

Track 15

Filename M:\4. my rip in preparation\3 - in treatment\1\CD2\15 - Leon Russell (Hank Wilson) - A Six Pack to Go.wav

Pre-gap length 0:00:01.24

Peak level 100.0 %
Extraction speed 1.9 X
Track quality 100.0 %
Test CRC C1F4C2F8
Copy CRC C1F4C2F8
Track not present in AccurateRip database
Copy OK

Track 16

Filename M:\4. my rip in preparation\3 - in treatment\1\CD2\16 - Paul McCartney & Wings - Sally G.wav

Pre-gap length 0:00:00.66

Peak level 67.6 %
Extraction speed 2.1 X
Track quality 100.0 %
Test CRC 648F6219
Copy CRC 648F6219
Track not present in AccurateRip database
Copy OK

Track 17

Filename M:\4. my rip in preparation\3 - in treatment\1\CD2\17 - Derek & The Dominos with Johnny Cash and Carl Perkins - Matchbox (live on the Johnny Cash Show).wav

Pre-gap length 0:00:02.04

Peak level 100.0 %
Extraction speed 2.1 X
Track quality 100.0 %
Test CRC 012EA482
Copy CRC 012EA482
Track not present in AccurateRip database
Copy OK


None of the tracks are present in the AccurateRip database

No errors occurred

End of status report

–– CUETools DB Plugin V2.1.4

[CTDB TOCID: GL9FiH5sDI6HQNrzoamPJUsqwNk-] found
Submit result: GL9FiH5sDI6HQNrzoamPJUsqwNk- has been confirmed
Track | CTDB Status
1 | (9/9) Accurately ripped
2 | (9/9) Accurately ripped
3 | (9/9) Accurately ripped
4 | (9/9) Accurately ripped
5 | (9/9) Accurately ripped
6 | (9/9) Accurately ripped
7 | (9/9) Accurately ripped
8 | (9/9) Accurately ripped
9 | (9/9) Accurately ripped
10 | (9/9) Accurately ripped
11 | (9/9) Accurately ripped
12 | (9/9) Accurately ripped
13 | (9/9) Accurately ripped
14 | (9/9) Accurately ripped
15 | (9/9) Accurately ripped
16 | (9/9) Accurately ripped
17 | (9/9) Accurately ripped


==== Log checksum BBBAA2A172A9B3342425EDD5F3098D59DD48144A140715CD74E9F385D46EF2CD ====


Bob Dylan, Johnny Cash, and The Nashville Cats - A New Music City (2015) [2CD] {Legacy}


All thanks goes to the original releaser!