Subcategories

Earth, Wind & Fire - Earth Wind And Fire / The Need Of Love (Digitally Remastered) (2018)

Posted By: delpotro
Earth, Wind & Fire - Earth Wind And Fire / The Need Of Love (Digitally Remastered) (2018)

Earth, Wind & Fire - Earth Wind And Fire / The Need Of Love (2018)
EAC Rip | FLAC (tracks+log+.cue) - 415 Mb | MP3 CBR 320 kbps - 156 Mb | Scans included | 01:01:56
Fumk, Disco | Label: BGO Records

The band’s two albums for Warner Bros., dating from 1970 and 1971. Both made the US Top 200, with the single ‘Love Is Life’ creeping into the Top 100. These recordings launched Earth, Wind & Fire’s long and successful career. Digitally remastered and slipcased.
Tracklist:
1. Help Somebody (04:02)
2. Moment Of Truth (03:08)
3. Love Is Life (05:05)
4. Fan The Fire (05:22)
5. C'mon Children (03:21)
6. This World Today (03:40)
7. Bad Tune (05:23)
8. Energy (09:40)
9. Beauty (04:15)
10. I Can Feel It In My Bones (05:07)
11. I Think About Lovin' You (05:59)
12. Everything Is Everything (06:47)

Exact Audio Copy V1.3 from 2. September 2016

EAC extraction logfile from 1. July 2019, 21:05

Earth, Wind & Fire / Earth Wind And Fire - The Need Of Love

Used drive : PLEXTOR PX-891SAF Adapter: 1 ID: 0

Read mode : Secure
Utilize accurate stream : Yes
Defeat audio cache : Yes
Make use of C2 pointers : No

Read offset correction : 6
Overread into Lead-In and Lead-Out : No
Fill up missing offset samples with silence : Yes
Delete leading and trailing silent blocks : No
Null samples used in CRC calculations : Yes
Used interface : Native Win32 interface for Win NT & 2000
Gap handling : Appended to previous track

Used output format : User Defined Encoder
Selected bitrate : 1024 kBit/s
Quality : High
Add ID3 tag : No
Command line compressor : C:\Program Files (x86)\Exact Audio Copy\Flac\flac.exe
Additional command line options : -8 -V -T "ARTIST=%artist%" -T "TITLE=%title%" -T "ALBUM=%albumtitle%" -T "DATE=%year%" -T "TRACKNUMBER=%tracknr%" -T "GENRE=%genre%" -T "PERFORMER=%albuminterpret%" -T "COMPOSER=%composer%" %haslyrics%–tag-from-file=LYRICS="%lyricsfile%"%haslyrics% -T "ALBUMARTIST=%albumartist%" -T "DISCNUMBER=%cdnumber%" -T "TOTALDISCS=%totalcds%" -T "TOTALTRACKS=%numtracks%" -T "COMMENT=%comment%" %source% -o %dest%


TOC of the extracted CD

Track | Start | Length | Start sector | End sector
––––––––––––––––––––––––––––-
1 | 0:00.00 | 4:02.71 | 0 | 18220
2 | 4:02.71 | 3:08.03 | 18221 | 32323
3 | 7:10.74 | 5:05.74 | 32324 | 55272
4 | 12:16.73 | 5:22.70 | 55273 | 79492
5 | 17:39.68 | 3:21.60 | 79493 | 94627
6 | 21:01.53 | 3:40.11 | 94628 | 111138
7 | 24:41.64 | 5:23.08 | 111139 | 135371
8 | 30:04.72 | 9:40.29 | 135372 | 178900
9 | 39:45.26 | 4:15.53 | 178901 | 198078
10 | 44:01.04 | 5:07.54 | 198079 | 221157
11 | 49:08.58 | 5:59.58 | 221158 | 248140
12 | 55:08.41 | 6:47.72 | 248141 | 278737


Track 1

Filename D:\#New wav + flac\Earth, Wind & Fire - Earth, Wind & Fire - The Need Of Love\01. Earth, Wind & Fire - Help Somebody.wav

Pre-gap length 0:00:02.00

Peak level 94.4 %
Extraction speed 5.1 X
Track quality 100.0 %
Test CRC 5CA74732
Copy CRC 5CA74732
Accurately ripped (confidence 3) [5C4AEB66] (AR v2)
Copy OK

Track 2

Filename D:\#New wav + flac\Earth, Wind & Fire - Earth, Wind & Fire - The Need Of Love\02. Earth, Wind & Fire - Moment Of Truth.wav

Peak level 94.4 %
Extraction speed 5.3 X
Track quality 100.0 %
Test CRC B0207A40
Copy CRC B0207A40
Accurately ripped (confidence 3) [A53CCA11] (AR v2)
Copy OK

Track 3

Filename D:\#New wav + flac\Earth, Wind & Fire - Earth, Wind & Fire - The Need Of Love\03. Earth, Wind & Fire - Love Is Life.wav

Peak level 94.4 %
Extraction speed 6.2 X
Track quality 100.0 %
Test CRC 3F2C3E5C
Copy CRC 3F2C3E5C
Accurately ripped (confidence 3) [6360F946] (AR v2)
Copy OK

Track 4

Filename D:\#New wav + flac\Earth, Wind & Fire - Earth, Wind & Fire - The Need Of Love\04. Earth, Wind & Fire - Fan The Fire.wav

Pre-gap length 0:00:03.68

Peak level 94.4 %
Extraction speed 6.8 X
Track quality 100.0 %
Test CRC A3470B66
Copy CRC A3470B66
Accurately ripped (confidence 3) [2369FA4C] (AR v2)
Copy OK

Track 5

Filename D:\#New wav + flac\Earth, Wind & Fire - Earth, Wind & Fire - The Need Of Love\05. Earth, Wind & Fire - C'mon Children.wav

Peak level 94.4 %
Extraction speed 6.8 X
Track quality 100.0 %
Test CRC 111B8F7A
Copy CRC 111B8F7A
Accurately ripped (confidence 3) [68B7F654] (AR v2)
Copy OK

Track 6

Filename D:\#New wav + flac\Earth, Wind & Fire - Earth, Wind & Fire - The Need Of Love\06. Earth, Wind & Fire - This World Today.wav

Peak level 94.4 %
Extraction speed 7.2 X
Track quality 100.0 %
Test CRC 00C8586F
Copy CRC 00C8586F
Accurately ripped (confidence 3) [BE1261F9] (AR v2)
Copy OK

Track 7

Filename D:\#New wav + flac\Earth, Wind & Fire - Earth, Wind & Fire - The Need Of Love\07. Earth, Wind & Fire - Bad Tune.wav

Peak level 94.4 %
Extraction speed 8.0 X
Track quality 100.0 %
Test CRC 39F36E41
Copy CRC 39F36E41
Accurately ripped (confidence 3) [DFD95CBC] (AR v2)
Copy OK

Track 8

Filename D:\#New wav + flac\Earth, Wind & Fire - Earth, Wind & Fire - The Need Of Love\08. Earth, Wind & Fire - Energy.wav

Pre-gap length 0:00:01.37

Peak level 97.7 %
Extraction speed 9.0 X
Track quality 100.0 %
Test CRC 693B7F24
Copy CRC 693B7F24
Accurately ripped (confidence 3) [2DC17638] (AR v2)
Copy OK

Track 9

Filename D:\#New wav + flac\Earth, Wind & Fire - Earth, Wind & Fire - The Need Of Love\09. Earth, Wind & Fire - Beauty.wav

Pre-gap length 0:00:01.22

Peak level 97.7 %
Extraction speed 8.9 X
Track quality 100.0 %
Test CRC C38FEF3C
Copy CRC C38FEF3C
Accurately ripped (confidence 3) [956530DE] (AR v2)
Copy OK

Track 10

Filename D:\#New wav + flac\Earth, Wind & Fire - Earth, Wind & Fire - The Need Of Love\10. Earth, Wind & Fire - I Can Feel It In My Bones.wav

Pre-gap length 0:00:01.48

Peak level 97.7 %
Extraction speed 8.0 X
Track quality 99.9 %
Test CRC 2AE050F1
Copy CRC 2AE050F1
Accurately ripped (confidence 3) [2779BE9A] (AR v2)
Copy OK

Track 11

Filename D:\#New wav + flac\Earth, Wind & Fire - Earth, Wind & Fire - The Need Of Love\11. Earth, Wind & Fire - I Think About Loving You.wav

Pre-gap length 0:00:03.14

Peak level 97.7 %
Extraction speed 10.0 X
Track quality 100.0 %
Test CRC BECA21F9
Copy CRC BECA21F9
Accurately ripped (confidence 3) [D844DA5F] (AR v2)
Copy OK

Track 12

Filename D:\#New wav + flac\Earth, Wind & Fire - Earth, Wind & Fire - The Need Of Love\12. Earth, Wind & Fire - Everything Is Everything.wav

Pre-gap length 0:00:01.54

Peak level 97.7 %
Extraction speed 10.5 X
Track quality 100.0 %
Test CRC F43879DA
Copy CRC F43879DA
Accurately ripped (confidence 3) [FFF066A5] (AR v2)
Copy OK


All tracks accurately ripped

No errors occurred

End of status report

–– CUETools DB Plugin V2.1.6

[CTDB TOCID: CxZ1P8_hzHr5rN8nwPWHHdQG0iQ-] found
Submit result: CxZ1P8_hzHr5rN8nwPWHHdQG0iQ- has been confirmed
Track | CTDB Status
1 | (1/1) Accurately ripped
2 | (1/1) Accurately ripped
3 | (1/1) Accurately ripped
4 | (1/1) Accurately ripped
5 | (1/1) Accurately ripped
6 | (1/1) Accurately ripped
7 | (1/1) Accurately ripped
8 | (1/1) Accurately ripped
9 | (1/1) Accurately ripped
10 | (1/1) Accurately ripped
11 | (1/1) Accurately ripped
12 | (1/1) Accurately ripped


==== Log checksum 73E9180E6A1FD330F94683FC7F80D0E75056A1D67D1BC733CC4C74CB72A63297 ====

––––––––––––––––––––––––––––––

Exact Audio Copy V1.3 from 2. September 2016

EAC extraction logfile from 1. July 2019, 21:05

Earth, Wind & Fire / Earth Wind And Fire - The Need Of Love

Used drive : PLEXTOR PX-891SAF Adapter: 1 ID: 0

Read mode : Secure
Utilize accurate stream : Yes
Defeat audio cache : Yes
Make use of C2 pointers : No

Read offset correction : 6
Overread into Lead-In and Lead-Out : No
Fill up missing offset samples with silence : Yes
Delete leading and trailing silent blocks : No
Null samples used in CRC calculations : Yes
Used interface : Native Win32 interface for Win NT & 2000
Gap handling : Appended to previous track

Used output format : User Defined Encoder
Selected bitrate : 1024 kBit/s
Quality : High
Add ID3 tag : No
Command line compressor : C:\Program Files (x86)\Exact Audio Copy\Flac\flac.exe
Additional command line options : -8 -V -T "ARTIST=%artist%" -T "TITLE=%title%" -T "ALBUM=%albumtitle%" -T "DATE=%year%" -T "TRACKNUMBER=%tracknr%" -T "GENRE=%genre%" -T "PERFORMER=%albuminterpret%" -T "COMPOSER=%composer%" %haslyrics%–tag-from-file=LYRICS="%lyricsfile%"%haslyrics% -T "ALBUMARTIST=%albumartist%" -T "DISCNUMBER=%cdnumber%" -T "TOTALDISCS=%totalcds%" -T "TOTALTRACKS=%numtracks%" -T "COMMENT=%comment%" %source% -o %dest%


TOC of the extracted CD

Track | Start | Length | Start sector | End sector
––––––––––––––––––––––––––––-
1 | 0:00.00 | 4:02.71 | 0 | 18220
2 | 4:02.71 | 3:08.03 | 18221 | 32323
3 | 7:10.74 | 5:05.74 | 32324 | 55272
4 | 12:16.73 | 5:22.70 | 55273 | 79492
5 | 17:39.68 | 3:21.60 | 79493 | 94627
6 | 21:01.53 | 3:40.11 | 94628 | 111138
7 | 24:41.64 | 5:23.08 | 111139 | 135371
8 | 30:04.72 | 9:40.29 | 135372 | 178900
9 | 39:45.26 | 4:15.53 | 178901 | 198078
10 | 44:01.04 | 5:07.54 | 198079 | 221157
11 | 49:08.58 | 5:59.58 | 221158 | 248140
12 | 55:08.41 | 6:47.72 | 248141 | 278737


Track 1

Filename D:\#New wav + flac\Earth, Wind & Fire - Earth, Wind & Fire - The Need Of Love\01. Earth, Wind & Fire - Help Somebody.wav

Pre-gap length 0:00:02.00

Peak level 94.4 %
Extraction speed 5.1 X
Track quality 100.0 %
Test CRC 5CA74732
Copy CRC 5CA74732
Accurately ripped (confidence 3) [5C4AEB66] (AR v2)
Copy OK

Track 2

Filename D:\#New wav + flac\Earth, Wind & Fire - Earth, Wind & Fire - The Need Of Love\02. Earth, Wind & Fire - Moment Of Truth.wav

Peak level 94.4 %
Extraction speed 5.3 X
Track quality 100.0 %
Test CRC B0207A40
Copy CRC B0207A40
Accurately ripped (confidence 3) [A53CCA11] (AR v2)
Copy OK

Track 3

Filename D:\#New wav + flac\Earth, Wind & Fire - Earth, Wind & Fire - The Need Of Love\03. Earth, Wind & Fire - Love Is Life.wav

Peak level 94.4 %
Extraction speed 6.2 X
Track quality 100.0 %
Test CRC 3F2C3E5C
Copy CRC 3F2C3E5C
Accurately ripped (confidence 3) [6360F946] (AR v2)
Copy OK

Track 4

Filename D:\#New wav + flac\Earth, Wind & Fire - Earth, Wind & Fire - The Need Of Love\04. Earth, Wind & Fire - Fan The Fire.wav

Pre-gap length 0:00:03.68

Peak level 94.4 %
Extraction speed 6.8 X
Track quality 100.0 %
Test CRC A3470B66
Copy CRC A3470B66
Accurately ripped (confidence 3) [2369FA4C] (AR v2)
Copy OK

Track 5

Filename D:\#New wav + flac\Earth, Wind & Fire - Earth, Wind & Fire - The Need Of Love\05. Earth, Wind & Fire - C'mon Children.wav

Peak level 94.4 %
Extraction speed 6.8 X
Track quality 100.0 %
Test CRC 111B8F7A
Copy CRC 111B8F7A
Accurately ripped (confidence 3) [68B7F654] (AR v2)
Copy OK

Track 6

Filename D:\#New wav + flac\Earth, Wind & Fire - Earth, Wind & Fire - The Need Of Love\06. Earth, Wind & Fire - This World Today.wav

Peak level 94.4 %
Extraction speed 7.2 X
Track quality 100.0 %
Test CRC 00C8586F
Copy CRC 00C8586F
Accurately ripped (confidence 3) [BE1261F9] (AR v2)
Copy OK

Track 7

Filename D:\#New wav + flac\Earth, Wind & Fire - Earth, Wind & Fire - The Need Of Love\07. Earth, Wind & Fire - Bad Tune.wav

Peak level 94.4 %
Extraction speed 8.0 X
Track quality 100.0 %
Test CRC 39F36E41
Copy CRC 39F36E41
Accurately ripped (confidence 3) [DFD95CBC] (AR v2)
Copy OK

Track 8

Filename D:\#New wav + flac\Earth, Wind & Fire - Earth, Wind & Fire - The Need Of Love\08. Earth, Wind & Fire - Energy.wav

Pre-gap length 0:00:01.37

Peak level 97.7 %
Extraction speed 9.0 X
Track quality 100.0 %
Test CRC 693B7F24
Copy CRC 693B7F24
Accurately ripped (confidence 3) [2DC17638] (AR v2)
Copy OK

Track 9

Filename D:\#New wav + flac\Earth, Wind & Fire - Earth, Wind & Fire - The Need Of Love\09. Earth, Wind & Fire - Beauty.wav

Pre-gap length 0:00:01.22

Peak level 97.7 %
Extraction speed 8.9 X
Track quality 100.0 %
Test CRC C38FEF3C
Copy CRC C38FEF3C
Accurately ripped (confidence 3) [956530DE] (AR v2)
Copy OK

Track 10

Filename D:\#New wav + flac\Earth, Wind & Fire - Earth, Wind & Fire - The Need Of Love\10. Earth, Wind & Fire - I Can Feel It In My Bones.wav

Pre-gap length 0:00:01.48

Peak level 97.7 %
Extraction speed 8.0 X
Track quality 99.9 %
Test CRC 2AE050F1
Copy CRC 2AE050F1
Accurately ripped (confidence 3) [2779BE9A] (AR v2)
Copy OK

Track 11

Filename D:\#New wav + flac\Earth, Wind & Fire - Earth, Wind & Fire - The Need Of Love\11. Earth, Wind & Fire - I Think About Loving You.wav

Pre-gap length 0:00:03.14

Peak level 97.7 %
Extraction speed 10.0 X
Track quality 100.0 %
Test CRC BECA21F9
Copy CRC BECA21F9
Accurately ripped (confidence 3) [D844DA5F] (AR v2)
Copy OK

Track 12

Filename D:\#New wav + flac\Earth, Wind & Fire - Earth, Wind & Fire - The Need Of Love\12. Earth, Wind & Fire - Everything Is Everything.wav

Pre-gap length 0:00:01.54

Peak level 97.7 %
Extraction speed 10.5 X
Track quality 100.0 %
Test CRC F43879DA
Copy CRC F43879DA
Accurately ripped (confidence 3) [FFF066A5] (AR v2)
Copy OK


All tracks accurately ripped

No errors occurred

End of status report

–– CUETools DB Plugin V2.1.6

[CTDB TOCID: CxZ1P8_hzHr5rN8nwPWHHdQG0iQ-] found
Submit result: CxZ1P8_hzHr5rN8nwPWHHdQG0iQ- has been confirmed
Track | CTDB Status
1 | (1/1) Accurately ripped
2 | (1/1) Accurately ripped
3 | (1/1) Accurately ripped
4 | (1/1) Accurately ripped
5 | (1/1) Accurately ripped
6 | (1/1) Accurately ripped
7 | (1/1) Accurately ripped
8 | (1/1) Accurately ripped
9 | (1/1) Accurately ripped
10 | (1/1) Accurately ripped
11 | (1/1) Accurately ripped
12 | (1/1) Accurately ripped


==== Log checksum 73E9180E6A1FD330F94683FC7F80D0E75056A1D67D1BC733CC4C74CB72A63297 ====

Thanks to the Original ripper !