Subcategories

Eddie "Lockjaw" Davis Quintet With Shirley Scott - Jaws In Orbit (1959) {Prestige OJCCD-322-2}

Posted By: ruskaval
Eddie "Lockjaw" Davis Quintet With Shirley Scott - Jaws In Orbit (1959) {Prestige OJCCD-322-2}

Eddie "Lockjaw" Davis Quintet With Shirley Scott - Jaws In Orbit (1959) {Prestige OJCCD-322-2}
EAC rip (secure mode) | FLAC (tracks)+CUE+LOG -> 267 Mb | MP3 @320 -> 89 Mb
Full Artwork @ 600 dpi (png) -> 116 Mb | 5% repair rar
© 1959, 1992 Prestige / Fantasy / OJC | OJCCD-322-2
Jazz / Soul Jazz / Hard Bop / Saxophone / Organ

Eddie Lockjaw Davis swings way out here – working in that cool cooking mode from the 50s, with organist Shirley Scott a very important partner on the date! The group's got a larger sound than usual – thanks to the addition of trombonist Steve Pullman – a player we don't know much, but who shifts the groove nicely away from some of Davis' more staid cookbook albums. Rhythm is by George Duvivier on bass and Arthur Edgehill on drums – and titles include "Bahia", "Foxy", "Bingo Domingo", and "Can't Get Out Of This Mood".

Personnel:
Eddie "Lockjaw" Davis - tenor saxophone
Shirley Scott - organ
Steve Pulliam - trombone
George Duvivier - bass
Arthur Edgehill - drums

tracklist:
01 - Intermission Riff
02 - Can't Get Out Of This Mood
03 - Foxy
04 - Our Delight
05 - Bahia
06 - Bingo Domingo

Exact Audio Copy V1.1 from 23. June 2015

EAC extraction logfile from 24. July 2016, 16:27

Eddie "Lockjaw" Davis Quintet With Shirley Scott / Jaws In Orbit

Used drive : HL-DT-STDVDRAM GP50NW41 Adapter: 1 ID: 0

Read mode : Secure
Utilize accurate stream : Yes
Defeat audio cache : Yes
Make use of C2 pointers : No

Read offset correction : 6
Overread into Lead-In and Lead-Out : No
Fill up missing offset samples with silence : Yes
Delete leading and trailing silent blocks : No
Null samples used in CRC calculations : Yes
Used interface : Native Win32 interface for Win NT & 2000
Gap handling : Appended to previous track

Used output format : User Defined Encoder
Selected bitrate : 1024 kBit/s
Quality : High
Add ID3 tag : No
Command line compressor : C:\Program Files (x86)\FLAC Frontend\tools\flac.exe
Additional command line options : -8 -V -T "ARTIST=%artist%" -T "TITLE=%title%" -T "ALBUM=%albumtitle%" -T "DATE=%year%" -T "TRACKNUMBER=%tracknr%" -T "TOTALTRACKS=%numtracks%" -T "GENRE=%genre%" -T "ALBUMARTIST=%albumartist%" -T "ALBUM ARTIST=%albumartist%" -T "COMMENT=EAC Secure Mode, Test & Copy, AccurateRip, FLAC -8" %source%


TOC of the extracted CD

Track | Start | Length | Start sector | End sector
––––––––––––––––––––––––––––-
1 | 0:00.00 | 6:24.45 | 0 | 28844
2 | 6:24.45 | 5:24.45 | 28845 | 53189
3 | 11:49.15 | 5:52.12 | 53190 | 79601
4 | 17:41.27 | 6:21.60 | 79602 | 108236
5 | 24:03.12 | 7:29.43 | 108237 | 141954
6 | 31:32.55 | 5:56.67 | 141955 | 168721


Track 1

Filename D:\_EAC\Eddie 'Lockjaw' Davis Quintet With Shirley Scott - Jaws In Orbit (1959) [FLAC] {Prestige OJCCD-322-2}\01 - Intermission Riff.wav

Pre-gap length 0:00:02.00

Peak level 100.0 %
Extraction speed 1.4 X
Track quality 100.0 %
Test CRC C25F9A16
Copy CRC C25F9A16
Accurately ripped (confidence 2) [88220448] (AR v2)
Copy OK

Track 2

Filename D:\_EAC\Eddie 'Lockjaw' Davis Quintet With Shirley Scott - Jaws In Orbit (1959) [FLAC] {Prestige OJCCD-322-2}\02 - Can't Get Out Of This Mood.wav

Pre-gap length 0:00:02.23

Peak level 100.0 %
Extraction speed 1.6 X
Track quality 100.0 %
Test CRC DF5C760A
Copy CRC DF5C760A
Accurately ripped (confidence 2) [2810F35C] (AR v2)
Copy OK

Track 3

Filename D:\_EAC\Eddie 'Lockjaw' Davis Quintet With Shirley Scott - Jaws In Orbit (1959) [FLAC] {Prestige OJCCD-322-2}\03 - Foxy.wav

Pre-gap length 0:00:02.08

Peak level 100.0 %
Extraction speed 1.8 X
Track quality 100.0 %
Test CRC 623566F3
Copy CRC 623566F3
Accurately ripped (confidence 2) [01CDF013] (AR v2)
Copy OK

Track 4

Filename D:\_EAC\Eddie 'Lockjaw' Davis Quintet With Shirley Scott - Jaws In Orbit (1959) [FLAC] {Prestige OJCCD-322-2}\04 - Our Delight.wav

Pre-gap length 0:00:02.47

Peak level 100.0 %
Extraction speed 1.8 X
Track quality 99.9 %
Test CRC 3DC1BD0A
Copy CRC 3DC1BD0A
Accurately ripped (confidence 2) [379FD95E] (AR v2)
Copy OK

Track 5

Filename D:\_EAC\Eddie 'Lockjaw' Davis Quintet With Shirley Scott - Jaws In Orbit (1959) [FLAC] {Prestige OJCCD-322-2}\05 - Bahia.wav

Pre-gap length 0:00:01.70

Peak level 100.0 %
Extraction speed 2.1 X
Track quality 100.0 %
Test CRC 24C9424D
Copy CRC 24C9424D
Accurately ripped (confidence 2) [506C6F3C] (AR v2)
Copy OK

Track 6

Filename D:\_EAC\Eddie 'Lockjaw' Davis Quintet With Shirley Scott - Jaws In Orbit (1959) [FLAC] {Prestige OJCCD-322-2}\06 - Bingo Domingo.wav

Pre-gap length 0:00:02.15

Peak level 100.0 %
Extraction speed 2.0 X
Track quality 99.9 %
Test CRC 75E0CABF
Copy CRC 75E0CABF
Accurately ripped (confidence 2) [B27309CF] (AR v2)
Copy OK


All tracks accurately ripped

No errors occurred

End of status report

==== Log checksum 70E242725140809A51CAFDE0D3A0490B3DEF726B4AAE9D8BCF2D5D6432B52728 ====


Eddie "Lockjaw" Davis Quintet With Shirley Scott - Jaws In Orbit (1959) {Prestige OJCCD-322-2}

Eddie "Lockjaw" Davis Quintet With Shirley Scott - Jaws In Orbit (1959) {Prestige OJCCD-322-2}