Subcategories

Eddie "Lockjaw" Davis & Shirley Scott - Bacalao (1959) [FLAC] {Prestige OJCCD-1090-2 rel 2003}

Posted By: ruskaval
Eddie "Lockjaw" Davis & Shirley Scott - Bacalao (1959) [FLAC] {Prestige OJCCD-1090-2 rel 2003}

Eddie "Lockjaw" Davis & Shirley Scott - Bacalao (1959) [FLAC] {Prestige OJCCD-1090-2 rel 2003}
EAC rip (secure mode) | FLAC (tracks)+CUE+LOG -> 310 Mb | MP3 @320 -> 102 Mb
Artwork @ 300 dpi (jpg) -> 7 Mb | 5% repair rar
© 1959, 2003 Prestige / Fantasy / OJC | OJCCD-1090-2
Jazz / Hard Bop / Soul Jazz / Saxophone / Organ

When it came to tenor saxophonists, the late organist Shirley Scott had excellent taste. One of the big-toned tenor men she worked with extensively was Stanley Turrentine, whom she married; another was Eddie "Lockjaw" Davis. Recorded in Rudy Van Gelder's New Jersey studio in 1959, Bacalao is among the many solid hard bop/soul-jazz albums that resulted from Davis' association with Scott. The two of them enjoyed an incredibly strong rapport in the late '50s and early '60s, and they are very much in sync on Bacalao (which unites them with bassist George Duvivier, drummer Arthur Edgehill, and two Latin percussion men: Luis Perez and salsa giant Ray Barretto).

The presence of Perez and Barretto gives the album some Afro-Cuban appeal, and both of them do well by Davis and Scott – who are in fine form whether they turn their attention to two James Moody items ("Last Train From Overbrook" and "Dobbin' With Redd Foxx") or well-known pop standards (which include "That Old Black Magic," "Sometimes I'm Happy," "When Your Lover Has Gone," and "Come Rain or Come Shine"). In the liner notes that he wrote for Bacalao in 1959 or 1960, Amiri Baraka (formerly Leroi Jones) describes "Come Rain or Come Shine" and "That Old Black Magic" as "old beat-up tunes"; even back then, those Harold Arlen standards were considered warhorses. But Baraka also goes on to say that Davis and his colleagues revitalize the songs. Organ combo soul-jazz was still new and fresh in 1959, and Scott was helping Davis find new ways to interpret very familiar melodies. Although not quite essential, Bacalao is a rewarding example of Davis' ability to thrive in an organ/tenor setting.

Personnel:
Eddie "Lockjaw" Davis - tenor saxophone
Shirley Scott - organ
George Duvivier - bass
Arthur Edgehill - drums
Ray Barretto - conga
Luis Perez - bongos, conga

tracklist:
01 - Last Train From Overbrook
02 - Sometimes I'm Happy
03 - That Old Black Magic
04 - Fast Spiral
05 - Dobbin' With Redd Foxx
06 - Come Rain Or Come Shine
07 - Dansero
08 - When Your Lover Has Gone

Exact Audio Copy V0.99 prebeta 5 from 4. May 2009

EAC extraction logfile from 22. July 2010, 20:21

Eddie Lockjaw Davis & Shirley Scott / Bacalao

Used drive : TSSTcorpCDDVDW SH-S203N Adapter: 0 ID: 2

Read mode : Secure
Utilize accurate stream : Yes
Defeat audio cache : Yes
Make use of C2 pointers : No

Read offset correction : 6
Overread into Lead-In and Lead-Out : No
Fill up missing offset samples with silence : Yes
Delete leading and trailing silent blocks : No
Null samples used in CRC calculations : Yes
Used interface : Installed external ASPI interface
Gap handling : Appended to previous track

Used output format : User Defined Encoder
Selected bitrate : 768 kBit/s
Quality : High
Add ID3 tag : No
Command line compressor : C:\Program Files\Exact Audio Copy\Flac\flac.exe
Additional command line options : -8 -V -T "ARTIST=%a" -T "TITLE=%t" -T "ALBUM=%g" -T "DATE=%y" -T "TRACKNUMBER=%n" -T "TOTALTRACKS=%x" -T "GENRE=%m" -T "ALBUMARTIST=%v" -T "ALBUM ARTIST=%v" -T "COMMENT=EAC V0.99 pb5, Secure Mode, Test & Copy, AccurateRip,


TOC of the extracted CD

Track | Start | Length | Start sector | End sector
––––––––––––––––––––––––––––-
1 | 0:00.00 | 5:07.15 | 0 | 23039
2 | 5:07.15 | 6:23.52 | 23040 | 51816
3 | 11:30.67 | 5:02.60 | 51817 | 74526
4 | 16:33.52 | 4:35.10 | 74527 | 95161
5 | 21:08.62 | 5:29.48 | 95162 | 119884
6 | 26:38.35 | 4:54.35 | 119885 | 141969
7 | 31:32.70 | 5:33.40 | 141970 | 166984
8 | 37:06.35 | 6:23.27 | 166985 | 195736


Track 1

Filename J:\New Rips\Eddie Lockjaw Davis & Shirley Scott - Bacalao (2003) [FLAC] {Prestige OJCCD-1090-2 rec 1959}\01 - Last Train From Overbrook.wav

Pre-gap length 0:00:02.00

Peak level 100.0 %
Track quality 100.0 %
Test CRC 7231FC1C
Copy CRC 7231FC1C
Track not present in AccurateRip database
Copy OK

Track 2

Filename J:\New Rips\Eddie Lockjaw Davis & Shirley Scott - Bacalao (2003) [FLAC] {Prestige OJCCD-1090-2 rec 1959}\02 - Sometimes I'm Happy.wav

Pre-gap length 0:00:02.06

Peak level 100.0 %
Track quality 100.0 %
Test CRC D9655ECA
Copy CRC D9655ECA
Track not present in AccurateRip database
Copy OK

Track 3

Filename J:\New Rips\Eddie Lockjaw Davis & Shirley Scott - Bacalao (2003) [FLAC] {Prestige OJCCD-1090-2 rec 1959}\03 - That Old Black Magic.wav

Pre-gap length 0:00:02.33

Peak level 100.0 %
Track quality 100.0 %
Test CRC 2AC1B3D4
Copy CRC 2AC1B3D4
Track not present in AccurateRip database
Copy OK

Track 4

Filename J:\New Rips\Eddie Lockjaw Davis & Shirley Scott - Bacalao (2003) [FLAC] {Prestige OJCCD-1090-2 rec 1959}\04 - Fast Spiral.wav

Pre-gap length 0:00:01.96

Peak level 100.0 %
Track quality 100.0 %
Test CRC C2F15E5F
Copy CRC C2F15E5F
Track not present in AccurateRip database
Copy OK

Track 5

Filename J:\New Rips\Eddie Lockjaw Davis & Shirley Scott - Bacalao (2003) [FLAC] {Prestige OJCCD-1090-2 rec 1959}\05 - Dobbin' With Redd Foxx.wav

Pre-gap length 0:00:02.66

Peak level 100.0 %
Track quality 100.0 %
Test CRC 7003BAFD
Copy CRC 7003BAFD
Track not present in AccurateRip database
Copy OK

Track 6

Filename J:\New Rips\Eddie Lockjaw Davis & Shirley Scott - Bacalao (2003) [FLAC] {Prestige OJCCD-1090-2 rec 1959}\06 - Come Rain Or Come Shine.wav

Pre-gap length 0:00:01.93

Peak level 100.0 %
Track quality 100.0 %
Test CRC FF0520A9
Copy CRC FF0520A9
Track not present in AccurateRip database
Copy OK

Track 7

Filename J:\New Rips\Eddie Lockjaw Davis & Shirley Scott - Bacalao (2003) [FLAC] {Prestige OJCCD-1090-2 rec 1959}\07 - Dansero.wav

Pre-gap length 0:00:02.04

Peak level 100.0 %
Track quality 100.0 %
Test CRC 1FD69DF4
Copy CRC 1FD69DF4
Track not present in AccurateRip database
Copy OK

Track 8

Filename J:\New Rips\Eddie Lockjaw Davis & Shirley Scott - Bacalao (2003) [FLAC] {Prestige OJCCD-1090-2 rec 1959}\08 - When Your Lover Has Gone.wav

Pre-gap length 0:00:01.64

Peak level 100.0 %
Track quality 100.0 %
Test CRC 5F9192B8
Copy CRC 5F9192B8
Track not present in AccurateRip database
Copy OK


None of the tracks are present in the AccurateRip database

No errors occurred

End of status report


Eddie "Lockjaw" Davis & Shirley Scott - Bacalao (1959) [FLAC] {Prestige OJCCD-1090-2 rel 2003}

Eddie "Lockjaw" Davis & Shirley Scott - Bacalao (1959) [FLAC] {Prestige OJCCD-1090-2 rel 2003}