Eddie Noack - Psycho: The K-Ark & Allstar Recordings, 1962-1969 (2013) {Bear Family Records BCD 17204 AH}

Posted By: ruskaval
Eddie Noack - Psycho: The K-Ark & Allstar Recordings, 1962-1969 (2013) {Bear Family Records BCD 17204 AH}

Eddie Noack - Psycho: The K-Ark & Allstar Recordings, 1962-1969 (2013) {Bear Family Records BCD 17204 AH}
EAC rip (secure mode) | FLAC (tracks)+CUE+LOG -> 174 Mb | MP3 @320 -> 119 Mb
Full Artwork @ 300 dpi (png) -> 163 Mb | 5% repair rar
© 1962-69, 2013 Bear Family Records | BCD 17204 AH
Country / Honky Tonk / Traditional Country / Bakersfield Sound

Eddie Noack had a rough '50s, working hard and never scoring a hit, but that's nothing compared to his '60s. After he was dropped by Mercury, the singer wound up drifting to Allstar, a fly-by-night Nashville indie that specialized in "song poems" – suckers would send in lyrics and pro musicians would set them to music, for a fee – and found space for Noack, a songwriter who had success, but a singer who had none. At Allstar, he was usually able to record his own songs, but Noack wound up chasing trends instead of setting them. Specifically, he wound up cutting several singles in the style of Buck Owens & the Buckaroos, sides that may not have charted but illustrated Noack was a pro, capable of following shifting fashions and delivering upon them ably, even appealingly.
Eddie Noack - Psycho: The K-Ark & Allstar Recordings, 1962-1969 (2013) {Bear Family Records BCD 17204 AH}

Throughout the sessions chronicled on this 24-track collection, it's always evident that Noack was a guy who knew what makes a good country song work, whether he's writing a tune or singing one, but his flat affect meant that he never quite seemed like a star; he just was another good country singer in a time filled with them. This sturdiness and all the shifting styles, also evident on his late-'60s sides for K-Ark, make this 2013 Bear Family set feel like the music coming from a forgotten jukebox, and that'd be enough to recommend it to hardcore country fans, but this is also distinguished by the first-ever version of Leon Payne's unsettling "Psycho." Written from the perspective of a serial killer – and loosely inspired by the serial killers Ed Gein and Richard Speck – "Psycho" was later popularized by Elvis Costello, who found it through Jack Kittel's version, but Noack's is the first and greatest, partially due to his stoicism: he sounds so nonplussed by the horror he chronicles that this flirts with being outsider art – quite an accomplishment for a Nashville insider. "Psycho" could be called unparalleled if only Noack didn't bewilderingly cut a de facto sequel immediately afterward in the form of "Dolores," an original tune also written from the perspective of a serial killer. It's as if Noack thought "Psycho" had the possibility of being a sensation so he'd better have another tune in the same vein. Combined, these two oddities elevate Psycho into something truly special: a compelling voyage through the dark, twisty, unmapped side roads of '60s country.
Eddie Noack - Psycho: The K-Ark & Allstar Recordings, 1962-1969 (2013) {Bear Family Records BCD 17204 AH}


bear-family.com INFO

Track Listing:
1. Psycho
2. Invisible Stripes
3. Dolores
4. Beer Drinkin' Blues
5. House On A Mountain
6. Stolen Rose
7. Cotton Mill
8. The End Of The Line
9. Barbara Joy
10. Sleeping Like A Baby (With A Bottle In My Mouth)
11. Too Hot To Handle
12. Tell Her
13. Chaperoned By A Memory
14. We Are The Lonely Ones
15. The Fall-Out (Keeps On Hurting)
16. Think Of Her Now
17. When The Bright Lights Grow Dim
18. You Can't Keep A Good Man Down
19. Two Bright Lights
20. Prisoner Of War
21. Buzz Buzz Buzz
22. Love
23. Two Brown Eyes
24. Does It Matter

Exact Audio Copy V1.2 from 12. August 2016

EAC extraction logfile from 30. April 2017, 18:01

Eddie Noack / Psycho: The K-Ark and Allstar Recordings 1962-1969

Used drive : TSSTcorpCDDVDW SH-224BB Adapter: 1 ID: 0

Read mode : Secure
Utilize accurate stream : Yes
Defeat audio cache : Yes
Make use of C2 pointers : No

Read offset correction : 6
Overread into Lead-In and Lead-Out : No
Fill up missing offset samples with silence : Yes
Delete leading and trailing silent blocks : No
Null samples used in CRC calculations : Yes
Used interface : Native Win32 interface for Win NT & 2000
Gap handling : Appended to previous track

Used output format : User Defined Encoder
Selected bitrate : 768 kBit/s
Quality : High
Add ID3 tag : No
Command line compressor : C:\Program Files (x86)\Exact Audio Copy\Flac\flac.exe
Additional command line options : -8 -V -T "ARTIST=%artist%" -T "TITLE=%title%" -T "ALBUM=%albumtitle%" -T "DATE=%year%" -T "TRACKNUMBER=%tracknr%" -T "TOTALTRACKS=%numtracks%" -T "GENRE=%genre%" -T "ALBUMARTIST=%albumartist%" -T "ALBUM ARTIST=%albumartist%" -T "COMMENT=EAC Secure Mode, Test & Copy, AccurateRip, FLAC -8" %source%


TOC of the extracted CD

Track | Start | Length | Start sector | End sector
––––––––––––––––––––––––––––-
1 | 0:00.00 | 3:36.42 | 0 | 16241
2 | 3:36.42 | 2:20.32 | 16242 | 26773
3 | 5:56.74 | 2:56.24 | 26774 | 39997
4 | 8:53.23 | 2:47.09 | 39998 | 52531
5 | 11:40.32 | 2:20.42 | 52532 | 63073
6 | 14:00.74 | 2:42.45 | 63074 | 75268
7 | 16:43.44 | 3:34.23 | 75269 | 91341
8 | 20:17.67 | 2:14.68 | 91342 | 101459
9 | 22:32.60 | 2:25.29 | 101460 | 112363
10 | 24:58.14 | 2:45.27 | 112364 | 124765
11 | 27:43.41 | 1:39.30 | 124766 | 132220
12 | 29:22.71 | 2:43.32 | 132221 | 144477
13 | 32:06.28 | 2:29.73 | 144478 | 155725
14 | 34:36.26 | 2:12.21 | 155726 | 165646
15 | 36:48.47 | 2:06.29 | 165647 | 175125
16 | 38:55.01 | 2:07.33 | 175126 | 184683
17 | 41:02.34 | 2:15.05 | 184684 | 194813
18 | 43:17.39 | 2:04.14 | 194814 | 204127
19 | 45:21.53 | 1:47.25 | 204128 | 212177
20 | 47:09.03 | 2:19.52 | 212178 | 222654
21 | 49:28.55 | 2:32.22 | 222655 | 234076
22 | 52:01.02 | 1:52.46 | 234077 | 242522
23 | 53:53.48 | 1:53.73 | 242523 | 251070
24 | 55:47.46 | 1:58.61 | 251071 | 259981


Track 1

Filename C:\Rips\Eddie Noack - Psycho The K-Ark And Allstar Recordings (2013) [FLAC]\01 - Psycho.wav

Pre-gap length 0:00:02.00

Peak level 93.9 %
Extraction speed 1.6 X
Track quality 100.0 %
Test CRC 51266CB8
Copy CRC 51266CB8
Track not present in AccurateRip database
Copy OK

Track 2

Filename C:\Rips\Eddie Noack - Psycho The K-Ark And Allstar Recordings (2013) [FLAC]\02 - Invisible Stripes.wav

Pre-gap length 0:00:02.00

Peak level 94.5 %
Extraction speed 1.4 X
Track quality 99.9 %
Test CRC 0B7EA5F2
Copy CRC 0B7EA5F2
Track not present in AccurateRip database
Copy OK

Track 3

Filename C:\Rips\Eddie Noack - Psycho The K-Ark And Allstar Recordings (2013) [FLAC]\03 - Dolores.wav

Pre-gap length 0:00:02.00

Peak level 94.9 %
Extraction speed 1.8 X
Track quality 100.0 %
Test CRC 1F961801
Copy CRC 1F961801
Track not present in AccurateRip database
Copy OK

Track 4

Filename C:\Rips\Eddie Noack - Psycho The K-Ark And Allstar Recordings (2013) [FLAC]\04 - Beer Drinkin' Blues.wav

Pre-gap length 0:00:02.00

Peak level 100.0 %
Extraction speed 1.9 X
Track quality 100.0 %
Test CRC 494B5DA2
Copy CRC 494B5DA2
Track not present in AccurateRip database
Copy OK

Track 5

Filename C:\Rips\Eddie Noack - Psycho The K-Ark And Allstar Recordings (2013) [FLAC]\05 - House On A Mountain.wav

Pre-gap length 0:00:02.00

Peak level 100.0 %
Extraction speed 1.9 X
Track quality 100.0 %
Test CRC 3A062072
Copy CRC 3A062072
Track not present in AccurateRip database
Copy OK

Track 6

Filename C:\Rips\Eddie Noack - Psycho The K-Ark And Allstar Recordings (2013) [FLAC]\06 - Stolen Rose.wav

Pre-gap length 0:00:02.00

Peak level 90.6 %
Extraction speed 2.0 X
Track quality 100.0 %
Test CRC 74948AFE
Copy CRC 74948AFE
Track not present in AccurateRip database
Copy OK

Track 7

Filename C:\Rips\Eddie Noack - Psycho The K-Ark And Allstar Recordings (2013) [FLAC]\07 - Cotton Mill.wav

Pre-gap length 0:00:02.00

Peak level 98.5 %
Extraction speed 2.3 X
Track quality 100.0 %
Test CRC 98542346
Copy CRC 98542346
Track not present in AccurateRip database
Copy OK

Track 8

Filename C:\Rips\Eddie Noack - Psycho The K-Ark And Allstar Recordings (2013) [FLAC]\08 - The End Of The Line.wav

Pre-gap length 0:00:02.00

Peak level 79.8 %
Extraction speed 2.2 X
Track quality 100.0 %
Test CRC 3E5BF726
Copy CRC 3E5BF726
Track not present in AccurateRip database
Copy OK

Track 9

Filename C:\Rips\Eddie Noack - Psycho The K-Ark And Allstar Recordings (2013) [FLAC]\09 - Barbara Joy.wav

Pre-gap length 0:00:02.00

Peak level 94.5 %
Extraction speed 1.7 X
Track quality 99.9 %
Test CRC 86A72316
Copy CRC 86A72316
Track not present in AccurateRip database
Copy OK

Track 10

Filename C:\Rips\Eddie Noack - Psycho The K-Ark And Allstar Recordings (2013) [FLAC]\10 - Sleeping Like A Baby (With A Bottle In My Mouth).wav

Pre-gap length 0:00:02.00

Peak level 100.0 %
Extraction speed 1.9 X
Track quality 99.9 %
Test CRC AA89CEC9
Copy CRC AA89CEC9
Track not present in AccurateRip database
Copy OK

Track 11

Filename C:\Rips\Eddie Noack - Psycho The K-Ark And Allstar Recordings (2013) [FLAC]\11 - Too Hot To Handle.wav

Pre-gap length 0:00:02.00

Peak level 78.4 %
Extraction speed 2.2 X
Track quality 100.0 %
Test CRC 21B06180
Copy CRC 21B06180
Track not present in AccurateRip database
Copy OK

Track 12

Filename C:\Rips\Eddie Noack - Psycho The K-Ark And Allstar Recordings (2013) [FLAC]\12 - Tell Her.wav

Pre-gap length 0:00:02.00

Peak level 77.3 %
Extraction speed 2.5 X
Track quality 100.0 %
Test CRC 90C77579
Copy CRC 90C77579
Track not present in AccurateRip database
Copy OK

Track 13

Filename C:\Rips\Eddie Noack - Psycho The K-Ark And Allstar Recordings (2013) [FLAC]\13 - Chaperoned By A Memory.wav

Pre-gap length 0:00:02.00

Peak level 74.2 %
Extraction speed 2.6 X
Track quality 100.0 %
Test CRC 6682331B
Copy CRC 6682331B
Track not present in AccurateRip database
Copy OK

Track 14

Filename C:\Rips\Eddie Noack - Psycho The K-Ark And Allstar Recordings (2013) [FLAC]\14 - We Are The Lonely Ones.wav

Pre-gap length 0:00:02.00

Peak level 70.6 %
Extraction speed 2.5 X
Track quality 100.0 %
Test CRC 72BC3221
Copy CRC 72BC3221
Track not present in AccurateRip database
Copy OK

Track 15

Filename C:\Rips\Eddie Noack - Psycho The K-Ark And Allstar Recordings (2013) [FLAC]\15 - The Fall-Out (Keeps On Hurting).wav

Pre-gap length 0:00:02.00

Peak level 99.9 %
Extraction speed 2.6 X
Track quality 100.0 %
Test CRC D035D889
Copy CRC D035D889
Track not present in AccurateRip database
Copy OK

Track 16

Filename C:\Rips\Eddie Noack - Psycho The K-Ark And Allstar Recordings (2013) [FLAC]\16 - Think Of Her Now.wav

Pre-gap length 0:00:02.00

Peak level 86.0 %
Extraction speed 1.8 X
Track quality 99.9 %
Test CRC 92376687
Copy CRC 92376687
Track not present in AccurateRip database
Copy OK

Track 17

Filename C:\Rips\Eddie Noack - Psycho The K-Ark And Allstar Recordings (2013) [FLAC]\17 - When The Bright Lights Grow Dim.wav

Pre-gap length 0:00:02.00

Peak level 96.2 %
Extraction speed 2.7 X
Track quality 100.0 %
Test CRC DC4FA2C2
Copy CRC DC4FA2C2
Track not present in AccurateRip database
Copy OK

Track 18

Filename C:\Rips\Eddie Noack - Psycho The K-Ark And Allstar Recordings (2013) [FLAC]\18 - You Can't Keep A Good Man Down.wav

Pre-gap length 0:00:02.00

Peak level 94.0 %
Extraction speed 1.8 X
Track quality 99.9 %
Test CRC 02170868
Copy CRC 02170868
Track not present in AccurateRip database
Copy OK

Track 19

Filename C:\Rips\Eddie Noack - Psycho The K-Ark And Allstar Recordings (2013) [FLAC]\19 - Two Bright Lights.wav

Pre-gap length 0:00:02.00

Peak level 91.1 %
Extraction speed 2.6 X
Track quality 100.0 %
Test CRC 37AA4923
Copy CRC 37AA4923
Track not present in AccurateRip database
Copy OK

Track 20

Filename C:\Rips\Eddie Noack - Psycho The K-Ark And Allstar Recordings (2013) [FLAC]\20 - Prisoner Of War.wav

Pre-gap length 0:00:02.00

Peak level 94.3 %
Extraction speed 2.8 X
Track quality 100.0 %
Test CRC 62E55FF4
Copy CRC 62E55FF4
Track not present in AccurateRip database
Copy OK

Track 21

Filename C:\Rips\Eddie Noack - Psycho The K-Ark And Allstar Recordings (2013) [FLAC]\21 - Buzz Buzz Buzz.wav

Pre-gap length 0:00:02.00

Peak level 99.8 %
Extraction speed 3.0 X
Track quality 100.0 %
Test CRC EFF9128C
Copy CRC EFF9128C
Track not present in AccurateRip database
Copy OK

Track 22

Filename C:\Rips\Eddie Noack - Psycho The K-Ark And Allstar Recordings (2013) [FLAC]\22 - Love.wav

Pre-gap length 0:00:02.00

Peak level 89.7 %
Extraction speed 2.8 X
Track quality 100.0 %
Test CRC 77ACFBB4
Copy CRC 77ACFBB4
Track not present in AccurateRip database
Copy OK

Track 23

Filename C:\Rips\Eddie Noack - Psycho The K-Ark And Allstar Recordings (2013) [FLAC]\23 - Two Brown Eyes.wav

Pre-gap length 0:00:02.00

Peak level 98.0 %
Extraction speed 2.9 X
Track quality 100.0 %
Test CRC 44F9E9BA
Copy CRC 44F9E9BA
Track not present in AccurateRip database
Copy OK

Track 24

Filename C:\Rips\Eddie Noack - Psycho The K-Ark And Allstar Recordings (2013) [FLAC]\24 - Does It Matter.wav

Pre-gap length 0:00:02.00

Peak level 94.5 %
Extraction speed 3.0 X
Track quality 100.0 %
Test CRC 8C0AE79E
Copy CRC 8C0AE79E
Track not present in AccurateRip database
Copy OK


None of the tracks are present in the AccurateRip database

No errors occurred

End of status report

–– CUETools DB Plugin V2.1.6

[CTDB TOCID: 04Pt2imYEN.0MGJtTTY_otWwdso-] found
Submit result: already submitted
Track | CTDB Status
1 | (3/3) Accurately ripped
2 | (3/3) Accurately ripped
3 | (3/3) Accurately ripped
4 | (3/3) Accurately ripped
5 | (3/3) Accurately ripped
6 | (3/3) Accurately ripped
7 | (3/3) Accurately ripped
8 | (3/3) Accurately ripped
9 | (3/3) Accurately ripped
10 | (3/3) Accurately ripped
11 | (3/3) Accurately ripped
12 | (3/3) Accurately ripped
13 | (3/3) Accurately ripped
14 | (3/3) Accurately ripped
15 | (3/3) Accurately ripped
16 | (3/3) Accurately ripped
17 | (3/3) Accurately ripped
18 | (3/3) Accurately ripped
19 | (3/3) Accurately ripped
20 | (3/3) Accurately ripped
21 | (3/3) Accurately ripped
22 | (3/3) Accurately ripped
23 | (3/3) Accurately ripped
24 | (3/3) Accurately ripped


==== Log checksum 6DC9D2F99BF86CFA6149D71A53310C6035A9C5EAF5A9592E1895A9606BEE03DC ====


Eddie Noack - Psycho: The K-Ark & Allstar Recordings, 1962-1969 (2013) {Bear Family Records BCD 17204 AH}

Eddie Noack - Psycho: The K-Ark & Allstar Recordings, 1962-1969 (2013) {Bear Family Records BCD 17204 AH}



===