Subcategories

Edgar Winter Group - They Only Come Out At Night + Shock Treatment (1972 + 1974) [2 on 1 Reissue 2007] RE-UP

Posted By: perfecta
Edgar Winter Group - They Only Come Out At Night + Shock Treatment (1972 + 1974) [2 on 1 Reissue 2007] RE-UP

Edgar Winter Group - They Only Come Out At Night + Shock Treatment (1972/1974)
EAC-FLAC Image with CUE & LOG - 510 MB | Complete Artwork | MP3 CBR 320 Kbps - 175 MB
Rock | 75:45 minutes | Label: Gottdiscs Limited, U.K. | Cat. # GOTT CD-058 | Year: 2007

Edgar Holland Winter is an American musician multi-instrumentalist, performing on the keyboards, and as a vocalist, saxophonist and percussionist, well-versed in jazz, blues and rock. He was most successful in the 1970s with his band, The Edgar Winter Group. Here's the fourth and fifth albums digitally remastered and reissued on one CD by British Gottdiscs Limited.

allmusic.com says:
They Only Come Out At Night: While this album will forever be remembered for spawning the huge hit singles "Frankenstein" and "Free Ride," there's plenty more to appreciate on this stellar release. From "the other single," "Hangin' Around," to the pretty melodies of "Round & Around" and "Autumn," the set collects ten outstanding cuts, played with fervor by Edgar Winter, Chuck Ruff, Dan Hartman, Randy Jo Hobbs, and Ronnie Montrose, along with guest artist/producer Rick Derringer. The "party" feel of "We All Had a Real Good Time" and the singalong "Alta Mira" only add to this already red-hot mix, making They Only Come Out at Night the album Winter will always be remembered for.

Shock Treatment: With this release, Edgar Winter was faced with the question that haunts many a superstar following a highly successful album – how can he outdo himself? While Shock Treatment falls short of outdoing himself, it still manages to rock pretty righteously. Beginning with this album's answer to their previous "Hangin' Around," "Some Kinda Animal," the band moves into the excellent blues torcher "Easy Street," which is painted with highlights from the substantial saxophone talent of Winter, not to mention some of his finest singing. Like They Only Come Out at Night, this recording includes a pair of haunting ballads, "Maybe Someday You'll Call My Name" and "Someone Take My Heart Away." "Queen of My Dreams," along with "River's Risin'," showcase the Edgar Winter Group doing what they do best – rocking out with passion and lots of drums and guitar. Not as good as their previous album, but still a winner in its own right.

Tracks:

01. Hangin' Around
02. When It Comes
03. Alta Mira
04. Free Ride
05. Undercover Man
06. Round & Round
07. Rock 'N' Roll Boogie Woogie Blues
08. Autumn
09. We All Had A Real Good Time
10. Frankenstein
11. Some Kinda Animal
12. Easy Street
13. Sundown
14. Miracle Of Love
15. Do Like Me
16. Rock & Roll Woman
17. Someone Take My Heart Away
18. Queen Of My Dreams
19. Maybe Some Day You'll Call My Name
20. River's Risin'
21. Animal

Tracks 1-10 are "They Only Come Out At Night".
Tracks 11-21 are "Shock Treatment" - both originally were produced by Rick Derringer.
Remastered at Sound Performance by Andrew Thompson.

They Only Come Out At Night @ Wikipedia
Shock Treatment @ Wikipedia

Exact Audio Copy V0.99 prebeta 4 from 23. January 2008

Отчёт EAC об извлечении, выполненном 28. ноября 2009, 23:14

Edgar Winter Group / They Only Come Out At Night + Shock Treatment

Дисковод: Optiarc DVD RW AD-7200A Adapter: 0 ID: 1

Режим чтения : Достоверность
Использование точного потока : Да
Отключение кэша аудио : Да
Использование указателей C2 : Нет

Коррекция смещения при чтении : 48
Способность читать области Lead-in и Lead-out : Нет
Заполнение пропущенных сэмплов тишиной : Да
Удаление блоков с тишиной в начале и конце : Нет
При вычислениях CRC использовались нулевые сэмплы : Да
Интерфейс : Встроенный Win32-интерфейс для Win NT/2000

Выходной формат : Пользовательский кодировщик
Выбранный битрейт : 128 kBit/s
Качество : Высокий
Добавление ID3-тэга : Нет
Утилита сжатия : C:\Program Files\Exact Audio Copy\wavpack.exe
Дополнительные параметры : -w "Artist=%a" -w "Title=%t" -w "Album=%g" -w "Year=%y" -w "Track=%n" -w "Genre=%m" -h %s %d


TOC извлечённого CD

Трек | Старт | Длительность | Начальный сектор | Конечный сектор
––––––––––––––––––––––––––––––––––-
1 | 0:00.00 | 3:04.15 | 0 | 13814
2 | 3:04.15 | 3:17.19 | 13815 | 28608
3 | 6:21.34 | 3:20.00 | 28609 | 43608
4 | 9:41.34 | 3:08.73 | 43609 | 57781
5 | 12:50.32 | 3:53.21 | 57782 | 75277
6 | 16:43.53 | 4:00.71 | 75278 | 93348
7 | 20:44.49 | 3:26.39 | 93349 | 108837
8 | 24:11.13 | 3:01.04 | 108838 | 122416
9 | 27:12.17 | 3:07.13 | 122417 | 136454
10 | 30:19.30 | 4:49.42 | 136455 | 158171
11 | 35:08.72 | 3:07.18 | 158172 | 172214
12 | 38:16.15 | 4:13.58 | 172215 | 191247
13 | 42:29.73 | 3:25.37 | 191248 | 206659
14 | 45:55.35 | 3:37.54 | 206660 | 222988
15 | 49:33.14 | 4:49.42 | 222989 | 244705
16 | 54:22.56 | 2:51.48 | 244706 | 257578
17 | 57:14.29 | 4:08.15 | 257579 | 276193
18 | 61:22.44 | 2:15.40 | 276194 | 286358
19 | 63:38.09 | 3:52.40 | 286359 | 303798
20 | 67:30.49 | 3:19.04 | 303799 | 318727
21 | 70:49.53 | 4:54.63 | 318728 | 340840


Характеристики диапазона извлечения и сообщения об ошибках

Выбранный диапазон

Имя файла Y:\Releases\Edgar Winter\They Only Come Out At Night + Shock Treatment\Edgar Winter Group - They Only Come Out At Night + Shock Treatment\Edgar Winter Group - They Only Come Out At Night + Shock Treatment.wav

Пиковый уровень 100.0 %
Качество диапазона 100.0 %
CRC копии 5EBF5D48
Копирование… OK

Ошибок не произошло


AccurateRip: сводка

Трек 1 точное извлечение (доверие 1) [4636EAE2]
Трек 2 точное извлечение (доверие 1) [2EA23C18]
Трек 3 точное извлечение (доверие 1) [1C20580C]
Трек 4 точное извлечение (доверие 1) [A2C81DED]
Трек 5 точное извлечение (доверие 1) [EEBE8F0A]
Трек 6 точное извлечение (доверие 1) [380B6241]
Трек 7 точное извлечение (доверие 1) [4E133518]
Трек 8 точное извлечение (доверие 1) [3B478EA8]
Трек 9 точное извлечение (доверие 1) [A598DC41]
Трек 10 точное извлечение (доверие 1) [FE819393]
Трек 11 точное извлечение (доверие 1) [F648F495]
Трек 12 точное извлечение (доверие 1) [F8A5EDDD]
Трек 13 точное извлечение (доверие 1) [772D5D31]
Трек 14 точное извлечение (доверие 1) [65CA7ACE]
Трек 15 точное извлечение (доверие 1) [A22E7976]
Трек 16 точное извлечение (доверие 1) [B3F4BCFB]
Трек 17 точное извлечение (доверие 1) [FDDC5C4A]
Трек 18 точное извлечение (доверие 1) [AC6FAB3D]
Трек 19 нет в базе данных
Трек 20 нет в базе данных
Трек 21 нет в базе данных

18 трек(и) скопированы точно
3 трек(и) не содержатся в базе AccurateRip

Некоторые треки не прошли проверку на точность

Конец отчёта

**********************************************

Track [ CRC ] Status
01 [4636eae2] (0/2) No match
02 [2ea23c18] (0/2) No match
03 [1c20580c] (0/2) No match
04 [a2c81ded] (0/2) No match
05 [eebe8f0a] (0/2) No match
06 [380b6241] (0/2) No match
07 [4e133518] (0/2) No match
08 [3b478ea8] (0/2) No match
09 [a598dc41] (0/2) No match
10 [fe819393] (0/2) No match
11 [f648f495] (0/2) No match
12 [f8a5eddd] (0/2) No match
13 [772d5d31] (0/2) No match
14 [65ca7ace] (0/2) No match
15 [a22e7976] (0/2) No match
16 [b3f4bcfb] (0/2) No match
17 [fddc5c4a] (0/2) No match
18 [ac6fab3d] (0/2) No match
19 [7ad50127] (0/2) No match
20 [6be97182] (0/2) No match
21 [b6e87583] (0/2) No match
Offsetted by -664:
01 [baf27954] (2/2) Accurately ripped
02 [bc38c94a] (2/2) Accurately ripped
03 [191aa86c] (2/2) Accurately ripped
04 [9e6e09c1] (2/2) Accurately ripped
05 [b1e12332] (2/2) Accurately ripped
06 [05e8eac1] (2/2) Accurately ripped
07 [5cea2317] (2/2) Accurately ripped
08 [a0aa4704] (2/2) Accurately ripped
09 [6b858932] (2/2) Accurately ripped
10 [45f33303] (2/2) Accurately ripped
11 [17f272fd] (2/2) Accurately ripped
12 [c6be8d8d] (2/2) Accurately ripped
13 [2ab7c5ab] (2/2) Accurately ripped
14 [452138f4] (2/2) Accurately ripped
15 [bbf6393e] (2/2) Accurately ripped
16 [354d38d3] (2/2) Accurately ripped
17 [38c90294] (2/2) Accurately ripped
18 [578a8b95] (2/2) Accurately ripped
19 [1f8fef1b] (2/2) Accurately ripped
20 [4c3d9fb5] (2/2) Accurately ripped
21 [6b15938e] (2/2) Accurately ripped

Track Peak [ CRC32 ] [W/O NULL] [ LOG ]
– 100,0 [5EBF5D48] [7DBFAB65] CRC32
01 100,0 [66E5890C] [8D956DF3]
02 100,0 [C143EF49] [31B7AEED]
03 100,0 [8A8FC630] [D65BA399]
04 100,0 [A73A1042] [372278D0]
05 100,0 [BAF92EAE] [2401CF24]
06 100,0 [69E55142] [0CC7BD72]
07 100,0 [8335C229] [3E69549D]
08 100,0 [DA010F5E] [F3C2295B]
09 100,0 [9545EEDC] [C6A2D7AB]
10 100,0 [F77F0377] [43C30B74]
11 100,0 [39DFB8AC] [B6D7BB8E]
12 100,0 [D00D6C93] [693CD57F]
13 100,0 [0BEB3213] [1108430A]
14 100,0 [1277A482] [2FC53186]
15 94,4 [B4E92C3D] [2174C326]
16 100,0 [ABEDF6E1] [B8F5CA19]
17 100,0 [640E928A] [60611129]
18 100,0 [D35E0A72] [B21F8EDE]
19 100,0 [014FCBD9] [E414302E]
20 94,4 [DE8767B7] [D32AEA40]
21 100,0 [73B3B4AA] [36683555]


Thanks to y-soft!