Subcategories

Fabrizio De André - Mi Innamoravo di Tutto (1997)

Posted By: edi1967
Fabrizio De André - Mi Innamoravo di Tutto (1997)

Fabrizio De André - Mi Innamoravo di Tutto (1997)
EAC Rip | FLAC (image) + CUE + LOG | 289 Mb + 3% recovery
Mp3 @ 320 Kbps | 122 MB + 5% recovery
1CD | 11 Tracks | 00:49:02 | Cover: Front, Back
Genre: Pop, Songwriters | Label: Dischi Ricordi

Mi innamoravo di tutto è il titolo di un album raccolta di Fabrizio De André, pubblicato nel 1997 da Ricordi. Contiene una versione live de La canzone dell'amore perduto e una nuova versione de La canzone di Marinella, registrata per l'occasione e cantata in duetto con Mina.

English
A good sampler, if at 11 tracks all too brief, of the many different phases of Fabrizio De André's career, this compilations skips most of the obvious hits for lesser known but equally terrific album tracks such as "Canto del Servo Pastore" or "Coda di Lupo." Its main attraction is the inclusion of a previously unavailable version of De André's most famous song "La Canzone di Marinella," performed as a live duet with Italy's greatest diva Mina. - by Mariano Prunes, AMG

Fabrizio De André - Mi Innamoravo di Tutto (1997)


With the death of Fabrizio De André from cancer on January 11, 1999, Italy lost one of its most modern singer/songwriters. Inspired by the songwriting of Bob Dylan and Leonard Cohen, De André's songs encompassed Genoese folk songs, French protest/social commentary, beatnik "stream of consciousness" poetry, and the soundtracks of Italian film Westerns. A native of the Genoese province of Liguria, De André was born into a wealthy family. His father's criticism of the fascists who controlled Italy caused he and his family to go into hiding in Asti during World War II. The experience left a lasting mark. Although he returned to Genoa following the end of the war in 1945, he continued to be drawn to political and social issues. Entering university as a pre-law student, De André found music a more effective mode for expressing his views. Having studied violin as a youngster, he found his natural musical voice after acquiring his first guitar at the age of 16. American jazz guitarist Jim Hall served as an early influence. Launching his professional career as a member of pianist Mario DeSantis' jazz band, De André increasingly veered toward more pop-minded genres. Forming a country & western band, Crazy Cowboy & Sheriff Ore, he began writing his own songs about suicide, prostitution, and drugs. His debut single, " Nuvole Barocche," was released in 1958. Scoring his first hit, "Marinella," in 1965, De André released his first album of new material, Tutto Fabrizio De Andre, the following year. He remained seclusive, however, refusing to appear on television and not performing his first concert until March 18, 1975. He continued to maintain a low profile for the rest of his life, rarely appearing in concert. De André attracted international attention when he was kidnapped, along with his compatriot Dori Ghezzi, in August 1979 and imprisoned for four months by Sardinian criminals. - by Craig Harris, AMG

Exact Audio Copy V0.99 prebeta 3 from 28. July 2007

EAC extraction logfile from 16. May 2008, 18:09

Fabrizio de André / Mi innamoravo di tutto

Used drive : PIONEER DVD-RW DVR-111D Adapter: 0 ID: 0

Read mode : Secure
Utilize accurate stream : Yes
Defeat audio cache : Yes
Make use of C2 pointers : No

Read offset correction : 48
Overread into Lead-In and Lead-Out : No
Fill up missing offset samples with silence : Yes
Delete leading and trailing silent blocks : No
Null samples used in CRC calculations : Yes
Used interface : Installed external ASPI interface
Gap handling : Not detected, thus appended to previous track

Used output format : Internal WAV Routines
Sample format : 44.100 Hz; 16 Bit; Stereo


TOC of the extracted CD

Track | Start | Length | Start sector | End sector
––––––––––––––––––––––––––––-
1 | 0:00.32 | 5:25.13 | 32 | 24419
2 | 5:25.45 | 5:04.00 | 24420 | 47219
3 | 10:29.45 | 4:50.67 | 47220 | 69036
4 | 15:20.37 | 4:35.05 | 69037 | 89666
5 | 19:55.42 | 3:13.13 | 89667 | 104154
6 | 23:08.55 | 3:07.57 | 104155 | 118236
7 | 26:16.37 | 4:12.13 | 118237 | 137149
8 | 30:28.50 | 5:00.05 | 137150 | 159654
9 | 35:28.55 | 3:47.37 | 159655 | 176716
10 | 39:16.17 | 4:21.03 | 176717 | 196294
11 | 43:37.20 | 5:26.55 | 196295 | 220799


Track 1

Filename C:\Documents and Settings\Administrator\Desktop\mi innamoravo2\Fabrizio de André - Mi innamoravo di tutto - 01 - Coda di lupo.wav

Peak level 99.6 %
Track quality 100.0 %
Test CRC BC14330B
Copy CRC BC14330B
Cannot be verified as accurate (confidence 1) [4D9B86B8], AccurateRip returned [62B26290]
Copy OK

Track 2

Filename C:\Documents and Settings\Administrator\Desktop\mi innamoravo2\Fabrizio de André - Mi innamoravo di tutto - 02 - La canzone di Marinella (cantata con Mina).wav

Peak level 95.6 %
Track quality 100.0 %
Test CRC 7362286F
Copy CRC 7362286F
Cannot be verified as accurate (confidence 1) [F85B2D02], AccurateRip returned [E5BB2D4A]
Copy OK

Track 3

Filename C:\Documents and Settings\Administrator\Desktop\mi innamoravo2\Fabrizio de André - Mi innamoravo di tutto - 03 - Sally.wav

Peak level 89.1 %
Track quality 99.9 %
Test CRC 38F0277D
Copy CRC 38F0277D
Cannot be verified as accurate (confidence 1) [01B74D97], AccurateRip returned [60EB3AAF]
Copy OK

Track 4

Filename C:\Documents and Settings\Administrator\Desktop\mi innamoravo2\Fabrizio de André - Mi innamoravo di tutto - 04 - La cattiva strada.wav

Peak level 89.2 %
Track quality 100.0 %
Test CRC FCBB6FE5
Copy CRC FCBB6FE5
Cannot be verified as accurate (confidence 1) [FD6A51AF], AccurateRip returned [3F7EDAEF]
Copy OK

Track 5

Filename C:\Documents and Settings\Administrator\Desktop\mi innamoravo2\Fabrizio de André - Mi innamoravo di tutto - 05 - Canto del servo pastore.wav

Peak level 84.0 %
Track quality 100.0 %
Test CRC 98B2ED22
Copy CRC 98B2ED22
Cannot be verified as accurate (confidence 1) [8914C78D], AccurateRip returned [38FBED45]
Copy OK

Track 6

Filename C:\Documents and Settings\Administrator\Desktop\mi innamoravo2\Fabrizio de André - Mi innamoravo di tutto - 06 - Bocca di rosa.wav

Peak level 98.9 %
Track quality 100.0 %
Test CRC 9FAE22D8
Copy CRC 9FAE22D8
Cannot be verified as accurate (confidence 1) [C4435FAD], AccurateRip returned [3679FDBD]
Copy OK

Track 7

Filename C:\Documents and Settings\Administrator\Desktop\mi innamoravo2\Fabrizio de André - Mi innamoravo di tutto - 07 - Se ti tagliassero a pezzetti.wav

Peak level 99.8 %
Track quality 100.0 %
Test CRC 914D5209
Copy CRC 914D5209
Cannot be verified as accurate (confidence 1) [CBFBDE41], AccurateRip returned [196F3401]
Copy OK

Track 8

Filename C:\Documents and Settings\Administrator\Desktop\mi innamoravo2\Fabrizio de André - Mi innamoravo di tutto - 08 - Jamin-a.wav

Peak level 99.9 %
Track quality 100.0 %
Test CRC DBB25117
Copy CRC DBB25117
Cannot be verified as accurate (confidence 1) [5AF688BA], AccurateRip returned [BA77838F]
Copy OK

Track 9

Filename C:\Documents and Settings\Administrator\Desktop\mi innamoravo2\Fabrizio de André - Mi innamoravo di tutto - 09 - La canzone dell'amore perduto (live).wav

Peak level 82.1 %
Track quality 100.0 %
Test CRC D84DFD56
Copy CRC D84DFD56
Cannot be verified as accurate (confidence 1) [DCCDF21C], AccurateRip returned [F146D51F]
Copy OK

Track 10

Filename C:\Documents and Settings\Administrator\Desktop\mi innamoravo2\Fabrizio de André - Mi innamoravo di tutto - 10 - Il bombarolo.wav

Peak level 89.7 %
Track quality 100.0 %
Test CRC 2AAA86AC
Copy CRC 2AAA86AC
Cannot be verified as accurate (confidence 1) [EF7727A3], AccurateRip returned [85727723]
Copy OK

Track 11

Filename C:\Documents and Settings\Administrator\Desktop\mi innamoravo2\Fabrizio de André - Mi innamoravo di tutto - 11 - Ave Maria.wav

Peak level 99.9 %
Track quality 100.0 %
Test CRC E3AC5F5E
Copy CRC E3AC5F5E
Cannot be verified as accurate (confidence 1) [2AD61F0E], AccurateRip returned [325471F6]
Copy OK


No tracks could be verified as accurate
You may have a different pressing from the one(s) in the database

No errors occurred

End of status report


Tracks:
1. Coda di Lupo (Fabrizio De Andre/Massimo Bubola) 5:25
2. Canzone di Marinella (Fabrizio De Andre) 5:04
3. Sally (Fabrizio De Andre/Massimo Bubola) 4:50
4. Cattiva Strada (Fabrizio De Andre/Francesco De Gregori) 4:35
5. Canto del Servo Pastore (Fabrizio De Andre/Massimo Bubola) 3:13
6. Bocca di Rosa (Fabrizio De Andre) 3:07
7. Se Ti Tagliassero a Pezzetti (Fabrizio De Andre/Massimo Bubola) 4:12
8. Jamin-A (Fabrizio De Andre/Mauro Pagani) 5:00
9. Canzone dell'Amore Perduto [Live] (Fabrizio De Andre) 3:47
10. Il Bombarolo (Fabrizio De Andre/Giuseppe Bentivoglio/Nicola Piovani) 4:21
11. Ave Maria (Franz Schubert) 5:26

Personnel:
Fabrizio De André (Vocals and Guitar)
Danilo Rea (Piano) - 2
Massimiliano Moriconi (Double Bass) - 2
Alfredo Golino (Drums and Percussion) - 2
Mark Harris (Vocals) - 11
Others unknown

Try before you might buy. Support the artists you like and buy their stuff whenever you can afford it.



Please DO NOT MIRROR

If you'll find that my links are dead please let me know through the Private Messages.

>>> Visit My Blog Here <<<


Fabrizio De André - Mi Innamoravo di Tutto (1997)