Subcategories

Vasco Rossi - Bollicine (1983)

Posted By: edi1967
Vasco Rossi - Bollicine (1983)

Vasco Rossi - Bollicine (1983)
EAC Rip | FLAC (image) + CUE + LOG | 324 Mb + 3% recovery
Mp3 @ 320 Kbps | 177 MB + 3% recovery
1CD | 8 Tracks | 00:33:33 | Full scans
Genre: Rock | Label: Carosello CLN

Bollicine è il sesto album in studio del cantautore italiano Vasco Rossi uscito nel 1983. Vita spericolata, presentata per la prima volta a Sanremo, è rapidamente divenuta un inno generazionale. La storia di questa canzone è abbastanza particolare. La musica era stata scritta da Tullio Ferro così come la prima bozza di testo in inglese.
Vasco tenne il provino per sei mesi prima di riuscire a trovare un testo adeguato. Inizialmente infatti pare che Vasco stesse lavorando a Voglio Alice ma con scarso successo. Poi durante un pomeriggio piovoso vicino al campo sportivo a Cagliari, dove lui e la sua band avrebbero dovuto fare un concerto, venne "Voglio una vita… spericolata!".

Per la canzone Bollicine, Vasco rischiò inizialmente di essere denunciato dalla Coca-cola; quando poi la multinazionale americana si rese conto della pubblicità indiretta ottenuta grazie al cantante di Zocca, rinunciò a passare alle vie legali.

In Una canzone per te, suona la chitarra acustica Dodi Battaglia, storico componente dei Pooh: Vasco gli renderà il favore qualche anno più tardi scrivendo il testo di Più in alto che c'è, brano presente sul disco d'esordio solista di Dodi, e partecipando anche ai cori nella parte finale della canzone.
Il "Roxy Bar" della canzone è stato identificato col Roxy Bar di Bologna dove i fan lasciano tuttora le loro firme (ne è stato tratto anche un libro: "Roxy bagno: caro Vasco ti scrivo"), ma Vasco alludeva a Fred Buscaglione.

L'album ha venduto più di 1.000.000 di copie.

English
Bollicine is the sixth studio album of Italian singer Vasco Rossi came out in 1983. Reckless life, presented for the first time in Sanremo, has quickly become a generational anthem. The story of this song is quite particular. The music was written by Tullio Iron as well as the first draft of text in English.
Vasco held for six months before the audition to be able to find a suitable text. Initially, it seems that I want to be working on Alice Vasco but with little success. Then during a rainy afternoon near the sports field in Cagliari, where he and his band were to play a concert, was "reckless … I want a life."

Bollicine for the song, Vasco initially risked being denounced by the Coca-Cola, then when the American company was aware of indirect advertising Zocca obtained thanks to the singer, gave up to go to court.

In A Song for You, playing the acoustic guitar Dodi Battaglia, historical component of Pooh: Vasco will make the favor a few years later by writing the text that is higher up, a song on the album's debut solo Dodi, and also to participate in the final chorus of the song.
The "Roxy Bar", the song was identified with the Roxy Bar, Bologna where fans still leave their signatures (it was made into a book: "Roxy bathroom Vasco dear I'll write"), but alluded to Fred Buscaglione Vasco.

The album has sold over 1,000,000 copies.

Vasco Rossi - Bollicine (1983)


Exact Audio Copy V0.99 prebeta 4 from 23. January 2008

EAC extraction logfile from 1. June 2009, 16:50

Vasco Rossi / Bollicine

Used drive : HL-DT-STCD-RW GCE-8526B Adapter: 1 ID: 1

Read mode : Secure
Utilize accurate stream : Yes
Defeat audio cache : Yes
Make use of C2 pointers : No

Read offset correction : 6
Overread into Lead-In and Lead-Out : No
Fill up missing offset samples with silence : Yes
Delete leading and trailing silent blocks : No
Null samples used in CRC calculations : Yes
Used interface : Installed external ASPI interface
Gap handling : Appended to previous track

Used output format : User Defined Encoder
Selected bitrate : 128 kBit/s
Quality : High
Add ID3 tag : No
Command line compressor : C:\Codecs\FLAC\flac.exe
Additional command line options : -8 -V -T "ARTIST=%a" -T "TITLE=%t" -T "ALBUM=%g" -T "DATE=%y" -T "TRACKNUMBER=%n" -T "GENRE=%m" -T "COMMENT=EAC FLAC -8" %s -o %d


TOC of the extracted CD

Track | Start | Length | Start sector | End sector
––––––––––––––––––––––––––––-
1 | 0:00.00 | 5:38.15 | 0 | 25364
2 | 5:38.15 | 3:14.32 | 25365 | 39946
3 | 8:52.47 | 3:20.35 | 39947 | 54981
4 | 12:13.07 | 4:43.65 | 54982 | 76271
5 | 16:56.72 | 4:37.13 | 76272 | 97059
6 | 21:34.10 | 5:24.72 | 97060 | 121431
7 | 26:59.07 | 3:29.00 | 121432 | 137106
8 | 30:28.07 | 3:18.70 | 137107 | 152026


Track 1

Filename C:\CDRip\01 - Bollicine.wav

Pre-gap length 0:00:02.00

Peak level 99.9 %
Track quality 100.0 %
Test CRC B226D80D
Copy CRC B226D80D
Track not present in AccurateRip database
Copy OK

Track 2

Filename C:\CDRip\02 - Una canzone per te.wav

Peak level 99.9 %
Track quality 100.0 %
Test CRC 6BF7A16F
Copy CRC 6BF7A16F
Track not present in AccurateRip database
Copy OK

Track 3

Filename C:\CDRip\03 - Portatemi Dio.wav

Peak level 99.9 %
Track quality 100.0 %
Test CRC 61EAD398
Copy CRC 61EAD398
Track not present in AccurateRip database
Copy OK

Track 4

Filename C:\CDRip\04 - Vita spericolata.wav

Peak level 99.9 %
Track quality 100.0 %
Test CRC 5989BF33
Copy CRC 5989BF33
Track not present in AccurateRip database
Copy OK

Track 5

Filename C:\CDRip\05 - Deviazioni.wav

Peak level 99.9 %
Track quality 100.0 %
Test CRC C3DDF308
Copy CRC C3DDF308
Track not present in AccurateRip database
Copy OK

Track 6

Filename C:\CDRip\06 - Giocala.wav

Peak level 99.9 %
Track quality 100.0 %
Test CRC 34D8C633
Copy CRC 34D8C633
Track not present in AccurateRip database
Copy OK

Track 7

Filename C:\CDRip\07 - Ultimo domicilio conosciuto.wav

Peak level 99.9 %
Track quality 100.0 %
Test CRC DA4704DD
Copy CRC DA4704DD
Track not present in AccurateRip database
Copy OK

Track 8

Filename C:\CDRip\08 - Mi piaci perché.wav

Peak level 99.9 %
Track quality 99.9 %
Test CRC 565C2FF2
Copy CRC 565C2FF2
Track not present in AccurateRip database
Copy OK


None of the tracks are present in the AccurateRip database

No errors occurred

End of status report



== Tracce ==

1. Bollicine - 5:40
2. Una canzone per te - 3:15
3. Portatemi Dio - 3:22
4. Vita spericolata - 4:46
5. Deviazioni - 4:39
6. Giocala - 5:28
7. Ultimo domicilio conosciuto - 3:31
8. Mi piaci perché - 3:20


Vasco Rossi - Bollicine (1983)



Vasco Rossi - Bollicine (1983)

Folder Link


Vasco Rossi - Bollicine (1983)

Folder Link


Password: crazy


Please DO NOT MIRROR

If you'll find that my links are dead please let me know through the Private Messages.

>>> Visit edi1967 Blog Here <<<