Subcategories

Pino Daniele - Studio Collection, Le origini (2000)

Posted By: edi1967
Pino Daniele - Studio Collection, Le origini (2000)

Pino Daniele - Studio Collection, Le origini (2000)
EAC Rip | Flac (image) +Log+Cue | Cover Scans | 3% rec. | 2CD | 31 Tracks | 99m :29s | 670 Mb
Genre: Blues Pop | Label: EMI

Studio Collection, Le Origini è un album raccolta pubblicato nel 2000 dall'etichetta discografica EMI con brani del cantautore italiano Pino Daniele. Come suggerisce il titolo, l'album è composto da materiale tratto dai primi tre album pubblicati dall'artista, nel periodo compreso tra il 1977 e il 1980.

English
Studio Collection, Origins is a compilation album released in 2000 with record label EMI songs of Italian singer Pino Daniele. As the title suggests, the album consists of material from the first three albums by the artist, in the period between 1977 and 1980.


Exact Audio Copy V0.99 prebeta 4 from 23. January 2008

Отчёт EAC об извлечении, выполненном 29. мая 2010, 23:45

Pino Daniele / Studio Collection (Le Origini) - cd1

Дисковод: ATAPI iHAS424 A Adapter: 0 ID: 0

Режим чтения : Достоверность
Использование точного потока : Да
Отключение кэша аудио : Да
Использование указателей C2 : Нет

Коррекция смещения при чтении : 6
Способность читать области Lead-in и Lead-out : Нет
Заполнение пропущенных сэмплов тишиной : Да
Удаление блоков с тишиной в начале и конце : Нет
При вычислениях CRC использовались нулевые сэмплы : Да
Интерфейс : Установленный внешний ASPI-интерфейс

Выходной формат : Пользовательский кодировщик
Выбранный битрейт : 1024 kBit/s
Качество : Высокий
Добавление ID3-тэга : Нет
Утилита сжатия : C:\Program Files\Exact Audio Copy\FLAC\FLAC.EXE
Дополнительные параметры : -6 -V -T "ARTIST=%a" -T "TITLE=%t" -T "ALBUM=%g" -T "DATE=%y" -T "TRACKNUMBER=%n" -T "GENRE=%m" -T "COMMENT=%e" %s -o %d


TOC извлечённого CD

Трек | Старт | Длительность | Начальный сектор | Конечный сектор
––––––––––––––––––––––––––––––––––-
1 | 0:00.00 | 4:36.41 | 0 | 20740
2 | 4:36.41 | 3:23.34 | 20741 | 35999
3 | 8:00.00 | 3:00.53 | 36000 | 49552
4 | 11:00.53 | 3:03.19 | 49553 | 63296
5 | 14:03.72 | 3:49.13 | 63297 | 80484
6 | 17:53.10 | 2:08.36 | 80485 | 90120
7 | 20:01.46 | 2:57.31 | 90121 | 103426
8 | 22:59.02 | 2:49.02 | 103427 | 116103
9 | 25:48.04 | 1:28.73 | 116104 | 122776
10 | 27:17.02 | 3:44.07 | 122777 | 139583
11 | 31:01.09 | 3:36.10 | 139584 | 155793
12 | 34:37.19 | 4:45.45 | 155794 | 177213
13 | 39:22.64 | 1:37.64 | 177214 | 184552
14 | 41:00.53 | 2:30.24 | 184553 | 195826
15 | 43:31.02 | 4:10.08 | 195827 | 214584
16 | 47:41.10 | 2:50.25 | 214585 | 227359


Характеристики диапазона извлечения и сообщения об ошибках

Выбранный диапазон

Имя файла I:\BitComet\Pino Daniele(flac)\Studio Collection\CD 1\Pino Daniele - Studio Collection (Le Origini) - cd1.wav

Пиковый уровень 96.6 %
Качество диапазона 100.0 %
CRC копии 881F9A50
Копирование… OK

Ошибок не произошло


AccurateRip: сводка

Трек 1 точность не определена (достоверность 1) [04B20862], AccurateRip вернул [3F08B391]
Трек 2 точность не определена (достоверность 1) [2DA331E2], AccurateRip вернул [05320B51]
Трек 3 точность не определена (достоверность 1) [3688FC9C], AccurateRip вернул [571E08DF]
Трек 4 точность не определена (достоверность 1) [0D93B178], AccurateRip вернул [039E1F84]
Трек 5 точность не определена (достоверность 1) [49331284], AccurateRip вернул [0F1133E3]
Трек 6 точность не определена (достоверность 1) [4F923D68], AccurateRip вернул [E1685C2D]
Трек 7 точность не определена (достоверность 1) [58B16E8E], AccurateRip вернул [46C55C10]
Трек 8 точность не определена (достоверность 1) [7F6911B5], AccurateRip вернул [CFC7A0CF]
Трек 9 точность не определена (достоверность 1) [F3677004], AccurateRip вернул [3FCD3B19]
Трек 10 точность не определена (достоверность 1) [ECCCAB26], AccurateRip вернул [C630CEF7]
Трек 11 точность не определена (достоверность 1) [F0DE44E8], AccurateRip вернул [054C19E1]
Трек 12 точность не определена (достоверность 1) [81E9325D], AccurateRip вернул [A0BDD282]
Трек 13 точность не определена (достоверность 1) [EEAF1D9D], AccurateRip вернул [EFCE03F6]
Трек 14 точность не определена (достоверность 1) [21BA0FA2], AccurateRip вернул [DD733277]
Трек 15 точность не определена (достоверность 1) [9E107194], AccurateRip вернул [3B0D7F61]
Трек 16 точность не определена (достоверность 1) [8EED7D0D], AccurateRip вернул [60F4EC0E]

Ни один трек не прошёл проверки на точность
В вашей базе может быть иной вариант штамповки диска

Конец отчёта

Exact Audio Copy V0.99 prebeta 4 from 23. January 2008

Отчёт EAC об извлечении, выполненном 30. мая 2010, 8:48

Pino Daniele / Studio collection (Le origini) - cd2

Дисковод: ATAPI iHAS424 A Adapter: 0 ID: 0

Режим чтения : Достоверность
Использование точного потока : Да
Отключение кэша аудио : Да
Использование указателей C2 : Нет

Коррекция смещения при чтении : 6
Способность читать области Lead-in и Lead-out : Нет
Заполнение пропущенных сэмплов тишиной : Да
Удаление блоков с тишиной в начале и конце : Нет
При вычислениях CRC использовались нулевые сэмплы : Да
Интерфейс : Установленный внешний ASPI-интерфейс

Выходной формат : Пользовательский кодировщик
Выбранный битрейт : 1024 kBit/s
Качество : Высокий
Добавление ID3-тэга : Нет
Утилита сжатия : C:\Program Files\Exact Audio Copy\FLAC\FLAC.EXE
Дополнительные параметры : -6 -V -T "ARTIST=%a" -T "TITLE=%t" -T "ALBUM=%g" -T "DATE=%y" -T "TRACKNUMBER=%n" -T "GENRE=%m" -T "COMMENT=%e" %s -o %d


TOC извлечённого CD

Трек | Старт | Длительность | Начальный сектор | Конечный сектор
––––––––––––––––––––––––––––––––––-
1 | 0:00.00 | 3:07.74 | 0 | 14098
2 | 3:07.74 | 4:00.12 | 14099 | 32110
3 | 7:08.11 | 4:29.20 | 32111 | 52305
4 | 11:37.31 | 3:36.52 | 52306 | 68557
5 | 15:14.08 | 3:13.02 | 68558 | 83034
6 | 18:27.10 | 3:42.57 | 83035 | 99741
7 | 22:09.67 | 3:48.28 | 99742 | 116869
8 | 25:58.20 | 2:58.53 | 116870 | 130272
9 | 28:56.73 | 3:43.38 | 130273 | 147035
10 | 32:40.36 | 2:39.48 | 147036 | 159008
11 | 35:20.09 | 2:51.23 | 159009 | 171856
12 | 38:11.32 | 3:25.42 | 171857 | 187273
13 | 41:36.74 | 2:48.31 | 187274 | 199904
14 | 44:25.30 | 3:41.65 | 199905 | 216544
15 | 48:07.20 | 1:34.26 | 216545 | 223620


Характеристики диапазона извлечения и сообщения об ошибках

Выбранный диапазон

Имя файла I:\BitComet\Pino Daniele(flac)\Studio Collection\CD 2\Pino Daniele - Studio collection (Le origini) - cd2.wav

Пиковый уровень 96.6 %
Качество диапазона 99.9 %
CRC копии 7F35C4EB
Копирование… OK

Ошибок не произошло


AccurateRip: сводка

Трек 1 точность не определена (достоверность 1) [B73B14EE], AccurateRip вернул [564788E6]
Трек 2 точность не определена (достоверность 1) [617CE1CA], AccurateRip вернул [878FE8E5]
Трек 3 точность не определена (достоверность 1) [D70EC1C2], AccurateRip вернул [893F8B07]
Трек 4 точность не определена (достоверность 1) [FB3BE645], AccurateRip вернул [BE4B4A86]
Трек 5 точность не определена (достоверность 1) [E877E549], AccurateRip вернул [C9061F30]
Трек 6 точность не определена (достоверность 1) [E136326E], AccurateRip вернул [727C1BBD]
Трек 7 точность не определена (достоверность 1) [92E63CA4], AccurateRip вернул [70338322]
Трек 8 точность не определена (достоверность 1) [EBF00E6C], AccurateRip вернул [DA3A9CD1]
Трек 9 точность не определена (достоверность 1) [0653E14A], AccurateRip вернул [AAA9A2F7]
Трек 10 точность не определена (достоверность 1) [29A05270], AccurateRip вернул [636C3A0F]
Трек 11 точность не определена (достоверность 1) [D15F5DCE], AccurateRip вернул [1EA0E0F7]
Трек 12 точность не определена (достоверность 1) [103EAEBD], AccurateRip вернул [05EC5D85]
Трек 13 точность не определена (достоверность 1) [315CDB10], AccurateRip вернул [ED4A8062]
Трек 14 точность не определена (достоверность 1) [66313FA2], AccurateRip вернул [480B492C]
Трек 15 точность не определена (достоверность 1) [51325FB3], AccurateRip вернул [9C001B4D]

Ни один трек не прошёл проверки на точность
В вашей базе может быть иной вариант штамповки диска

Конец отчёта


English Translation
Exact Audio Copy V0.99 prebeta 4 from 23. January 2008

EAC extraction logfile, executed 29. May 2010, 23:45

Pino Daniele / Studio Collection (Le Origini) - cd1

Drive: ATAPI iHAS424 A Adapter: 0 ID: 0

Read mode: Secure
Utilize accurate stream: Yes
Defeat audio cache: Yes
Using pointers C2: No

Read offset correction: 6
Overread Lead-in and Lead-out: No
Fill up missing offset samples with silence: Yes
Removal of blocks from the silence in the beginning and end: None
CRC calculations Null samples used: Yes
Interface: Installed external ASPI-interface

Output format: User Defined Encoder
Selected bitrate: 1024 kBit / s
Quality: High
Adding ID3-Tag: None
Compression utility: C: \ Program Files \ Exact Audio Copy \ FLAC \ FLAC.EXE
Additional options: -6-V-T "ARTIST =% a"-T "TITLE =% t"-T "ALBUM =% g"-T "DATE =% y"-T "TRACKNUMBER =% n"-T " GENRE =% m "-T" COMMENT =% e "% s-o% d


TOC of the extracted CD

Track | Start | Length | Start sector | End sector
––––––––––––––––––––––––– –––––––––-
1 | 0:00.00 | 4:36.41 | 0 | 20740
2 | 4:36.41 | 3:23.34 | 20741 | 35999
3 | 8:00.00 | 3:00.53 | 36000 | 49552
4 | 11:00.53 | 3:03.19 | 49553 | 63296
5 | 14:03.72 | 3:49.13 | 63297 | 80484
6 | 17:53.10 | 2:08.36 | 80485 | 90120
7 | 20:01.46 | 2:57.31 | 90121 | 103426
8 | 22:59.02 | 2:49.02 | 103427 | 116103
9 | 25:48.04 | 1:28.73 | 116104 | 122776
10 | 27:17.02 | 3:44.07 | 122777 | 139583
11 | 31:01.09 | 3:36.10 | 139584 | 155793
12 | 34:37.19 | 4:45.45 | 155794 | 177213
13 | 39:22.64 | 1:37.64 | 177214 | 184552
14 | 41:00.53 | 2:30.24 | 184553 | 195826
15 | 43:31.02 | 4:10.08 | 195827 | 214584
16 | 47:41.10 | 2:50.25 | 214585 | 227359


Range status and error messages

Selected range

The name of the file I: \ BitComet \ Pino Daniele (flac) \ Studio Collection \ CD 1 \ Pino Daniele - Studio Collection (Le Origini) - cd1.wav

Peak level 96.6%
Quality 100.0%
Copy CRC 881F9A50
Copying … OK

Error happened


AccurateRip: summary

Track 1 accurately (confidence 1) [04B20862], AccurateRip returned [3F08B391]
Track 2 accurately (confidence 1) [2DA331E2], AccurateRip returned [05320B51]
Track 3 accurately (confidence 1) [3688FC9C], AccurateRip returned [571E08DF]
Track 4 accurately (confidence 1) [0D93B178], AccurateRip returned [039E1F84]
Track 5 accurately (confidence 1) [49331284], AccurateRip returned [0F1133E3]
Track 6 accurately (confidence 1) [4F923D68], AccurateRip returned [E1685C2D]
Track 7 accurately (confidence 1) [58B16E8E], AccurateRip returned [46C55C10]
Track 8 accurately (confidence 1) [7F6911B5], AccurateRip returned [CFC7A0CF]
Track 9 accurately (confidence 1) [F3677004], AccurateRip returned [3FCD3B19]
Track 10 accurately (confidence 1) [ECCCAB26], AccurateRip returned [C630CEF7]
Track 11 accurately (confidence 1) [F0DE44E8], AccurateRip returned [054C19E1]
Track 12 accurately (confidence 1) [81E9325D], AccurateRip returned [A0BDD282]
Track 13 accurately (confidence 1) [EEAF1D9D], AccurateRip returned [EFCE03F6]
Track 14 accurately (confidence 1) [21BA0FA2], AccurateRip returned [DD733277]
Track 15 accurately (confidence 1) [9E107194], AccurateRip returned [3B0D7F61]
Track 16 accurately (confidence 1) [8EED7D0D], AccurateRip returned [60F4EC0E]

Neither track has not passed testing for accuracy
Your database may be another option stamping disc

End Report

Exact Audio Copy V0.99 prebeta 4 from 23. January 2008

EAC extraction logfile, executed 30. May 2010, 8:48

Pino Daniele / Studio collection (Le origini) - cd2

Drive: ATAPI iHAS424 A Adapter: 0 ID: 0

Read mode: Secure
Utilize accurate stream: Yes
Defeat audio cache: Yes
Using pointers C2: No

Read offset correction: 6
Overread Lead-in and Lead-out: No
Fill up missing offset samples with silence: Yes
Removal of blocks from the silence in the beginning and end: None
CRC calculations Null samples used: Yes
Interface: Installed external ASPI-interface

Output format: User Defined Encoder
Selected bitrate: 1024 kBit / s
Quality: High
Adding ID3-Tag: None
Compression utility: C: \ Program Files \ Exact Audio Copy \ FLAC \ FLAC.EXE
Additional options: -6-V-T "ARTIST =% a"-T "TITLE =% t"-T "ALBUM =% g"-T "DATE =% y"-T "TRACKNUMBER =% n"-T " GENRE =% m "-T" COMMENT =% e "% s-o% d


TOC of the extracted CD

Track | Start | Length | Start sector | End sector
––––––––––––––––––––––––– –––––––––-
1 | 0:00.00 | 3:07.74 | 0 | 14098
2 | 3:07.74 | 4:00.12 | 14099 | 32110
3 | 7:08.11 | 4:29.20 | 32111 | 52305
4 | 11:37.31 | 3:36.52 | 52306 | 68557
5 | 15:14.08 | 3:13.02 | 68558 | 83034
6 | 18:27.10 | 3:42.57 | 83035 | 99741
7 | 22:09.67 | 3:48.28 | 99742 | 116869
8 | 25:58.20 | 2:58.53 | 116870 | 130272
9 | 28:56.73 | 3:43.38 | 130273 | 147035
10 | 32:40.36 | 2:39.48 | 147036 | 159008
11 | 35:20.09 | 2:51.23 | 159009 | 171856
12 | 38:11.32 | 3:25.42 | 171857 | 187273
13 | 41:36.74 | 2:48.31 | 187274 | 199904
14 | 44:25.30 | 3:41.65 | 199905 | 216544
15 | 48:07.20 | 1:34.26 | 216545 | 223620


Range status and error messages

Selected range

The name of the file I: \ BitComet \ Pino Daniele (flac) \ Studio Collection \ CD 2 \ Pino Daniele - Studio collection (Le origini) - cd2.wav

Peak level 96.6%
Range quality 99.9%
Copy CRC 7F35C4EB
Copying … OK

Error happened


AccurateRip: summary

Track 1 accurately (confidence 1) [B73B14EE], AccurateRip returned [564788E6]
Track 2 accurately (confidence 1) [617CE1CA], AccurateRip returned [878FE8E5]
Track 3 accurately (confidence 1) [D70EC1C2], AccurateRip returned [893F8B07]
Track 4 accurately (confidence 1) [FB3BE645], AccurateRip returned [BE4B4A86]
Track 5 accurately (confidence 1) [E877E549], AccurateRip returned [C9061F30]
Track 6 accurately (confidence 1) [E136326E], AccurateRip returned [727C1BBD]
Track 7 accurately (confidence 1) [92E63CA4], AccurateRip returned [70338322]
Track 8 accurately (confidence 1) [EBF00E6C], AccurateRip returned [DA3A9CD1]
Track 9 accurately (confidence 1) [0653E14A], AccurateRip returned [AAA9A2F7]
Track 10 accurately (confidence 1) [29A05270], AccurateRip returned [636C3A0F]
Track 11 accurately (confidence 1) [D15F5DCE], AccurateRip returned [1EA0E0F7]
Track 12 accurately (confidence 1) [103EAEBD], AccurateRip returned [05EC5D85]
Track 13 accurately (confidence 1) [315CDB10], AccurateRip returned [ED4A8062]
Track 14 accurately (confidence 1) [66313FA2], AccurateRip returned [480B492C]
Track 15 accurately (confidence 1) [51325FB3], AccurateRip returned [9C001B4D]

Neither track has not passed testing for accuracy
Your database may be another option stamping disc

End Report


Pino Daniele - Studio Collection, Le origini (2000)


Tracce

Disco 1


1. Quanno chiove 4:36
2. 'Na tazzulella 'e cafè 3:23
3. Je so' pazzo 3:00
4. A me me piace 'o blues 3:03
5. Napule è 3:49
6. Terra mia 2:08
7. Che calore 2:57
8. Cammina cammina 2:49
9. Chi pò dicere 1:28
10. Je sto vicino a te 3:44
11. Basta na jurnata 'e sole 3:36
12. Uè man! 4:45
13. Viento 1:37
14. …E cerca 'e me capì 2:30
15. I say i' sto ccà 4:10
16. Musica musica 2:50

Disco 2

1. Puozze passà nu guaio 3:07
2. Voglio di più 4:00
3. E so cuntento 'e stà 4:29
4. Nun me scoccià 3:36
5. Alleria 3:13
6. Il mare 3:42
7. Libertà 3:48
8. Fortunato 2:58
9. A testa in giù 3:43
10. Chi tene 'o mare 2:39
11. Maronna mia 2:51
12. Ce sta chi ce penza 3:25
13. Chillo è nu buono guaglione 2:48
14. Putesse essere allero 3:41
15. Appocundria 1:34


=== Download ===

Pino Daniele - Studio Collection, Le origini (2000)

Link 5960/2c9957a/pd-sc-lo1-f-r.part1.rar
Link 6248/a3354a8/pd-sc-lo1-f-r.part2.rar
Link 6455/b047035/pd-sc-lo1-f-r.part3.rar
Link 6569/6d9240f/pd-sc-lo1-f-r.part4.rar
Link 6667/b726496/pd-sc-lo1-f-r.part5.rar
Link 6178/8a21c5f/pd-sc-lo2-f-r.part1.rar
Link 6486/3514ed9/pd-sc-lo2-f-r.part2.rar
Link 6732/ac27d0a/pd-sc-lo2-f-r.part3.rar
Link 6883/f8ed2b7/pd-sc-lo2-f-r.part4.rar
Link 6927/d2cbf20/pd-sc-lo2-f-r.part5.rar

Pino Daniele - Studio Collection, Le origini (2000)

Link AGq4J55/pd-sc-lo1-f-r.part1.rar
Link huUwmPS/pd-sc-lo1-f-r.part2.rar
Link UrDm6eH/pd-sc-lo1-f-r.part3.rar
Link DWeKbUV/pd-sc-lo1-f-r.part4.rar
Link 3VqsZFY/pd-sc-lo1-f-r.part5.rar
Link HqyqcUd/pd-sc-lo2-f-r.part1.rar
Link 6Xd92C5/pd-sc-lo2-f-r.part2.rar
Link uufCuHB/pd-sc-lo2-f-r.part3.rar
Link s6Fs4u5/pd-sc-lo2-f-r.part4.rar
Link 6MAWkb3/pd-sc-lo2-f-r.part5.rar

Pino Daniele - Studio Collection, Le origini (2000)

Link d225bm93/pd-sc-lo2-f-r.part5.rar
Link mm6amfmb/pd-sc-lo2-f-r.part4.rar
Link dbmd61e7/pd-sc-lo2-f-r.part3.rar
Link ed8cd41b/pd-sc-lo2-f-r.part2.rar
Link 5m7fecad/pd-sc-lo2-f-r.part1.rar
Link ef97f7d2/pd-sc-lo1-f-r.part5.rar
Link af3adm1c/pd-sc-lo1-f-r.part4.rar
Link c8f6dd11/pd-sc-lo1-f-r.part3.rar
Link 1c2171fb/pd-sc-lo1-f-r.part2.rar
Link 8a3bam84/pd-sc-lo1-f-r.part1.rar

Pino Daniele - Studio Collection, Le origini (2000)

Link 36661/pd-sc-lo1-f-r.part1.rar
Link 36545/pd-sc-lo1-f-r.part2.rar
Link 36825/pd-sc-lo1-f-r.part3.rar
Link 46653/pd-sc-lo1-f-r.part4.rar
Link 36647/pd-sc-lo1-f-r.part5.rar
Link 36817/pd-sc-lo2-f-r.part1.rar
Link 37781/pd-sc-lo2-f-r.part2.rar
Link 39403/pd-sc-lo2-f-r.part3.rar
Link 39407/pd-sc-lo2-f-r.part4.rar
Link 38399/pd-sc-lo2-f-r.part5.rar

Password: crazy


Others Album of this artist in FLAC format
Pino Daniele - Sciò Live (1984)
Pino Daniele - Un uomo in blues (1996)
Pino Daniele - Mascalzone Latino (1989)
Pino Daniele - Dimmi Cosa Succede Sulla Terra (1997)
Pino Daniele - Come un gelato all'equatore (1999)



Please DO NOT MIRROR

If you'll find that my links are dead please let me know through the Private Messages.

>>> Visit edi1967 Blog Here <<<