Subcategories

Edouard Lalo - Tassis Christoyannis & Jeff Cohen - Complete Songs (2015) {Aparte-Harmonia Mundi AP110}

Posted By: ruskaval
Edouard Lalo - Tassis Christoyannis & Jeff Cohen - Complete Songs (2015) {Aparte-Harmonia Mundi AP110}

Edouard Lalo - Tassis Christoyannis & Jeff Cohen - Complete Songs (2015) {Aparte-Harmonia Mundi AP110}
EAC rip (secure mode) | FLAC (tracks)+CUE+LOG -> 594 Mb | MP3 @320 -> 336 Mb
Full Artwork @ 300 dpi (png) -> 226 Mb | 5% repair rar
© 2015 Aparté / Harmonia Mundi | AP110
Classical / Vocal Music / Romantic / French Classical / Chamber Music

Composer Edouard Lalo's work encompassed the period of Romanticism that witnessed the evolution of the romance de salon genre into the melodie francaise or French art song. It is an injustice of posterity that only Faure, Duparc and Debussy acquired true fame in this genre. This collection from baritone Tassis Christoyannis and pianist Jeff Cohen featuring the two scenes de salon for voice and piano, the seven romances and the 23 melodies, shows that Lalo easily stands alongside his more well-known countrymen.
Edouard Lalo - Tassis Christoyannis & Jeff Cohen - Complete Songs (2015) {Aparte-Harmonia Mundi AP110}

Édouard Lalo wrote some 23 songs between 1848 and 1887, a significant contribution to his smallish but invariably distinguished output. Very few have appeared on CD, however, so this fine complete set from Tassis Christoyannis and Jeff Cohen fills a major gap in Lalo’s discography. It allows us to assess and reassess the songs themselves, while the chronological presentation affords significant insights into the development of a composer of great originality, whose reputation still suffers from charges of idiosyncrasy.

His early songs, occupying the whole of the first disc and mostly designated ‘scènes’ or ‘romances’ rather than ‘mélodies’, are experimental by nature, grand in scale and occasionally discursive. ‘Adieu au désert’ and ‘Le novice’, portraits of a Muslim warrior and a renegade monk respectively, are essentially dramatic cantatas, combining recitative and arioso, not always ideally successfully. More impressive are the Six Romances populaires de Pierre-Jean Béranger of 1849, a lengthy (44 minutes) sequence of strophic ballads, some with accompaniments in variation form, to texts by the iconic poet of the 1830 revolution: their combination of social concern, angry wit and sentimentality reveals a fierce political conscience, the intensity of which was to wane as Lalo’s career progressed.

Edouard Lalo - Tassis Christoyannis & Jeff Cohen - Complete Songs (2015) {Aparte-Harmonia Mundi AP110}


When we get to the 1856 Victor Hugo set that opens the second disc, however, a marked shift is discernible. There is a gravitation towards high-Romantic poetry. The tone varies and lightens, becoming intimate and sexual. Accompaniments become more transparent as Lalo turns towards shorter forms. His expressive range and subtlety deepened further after 1865, the year he married the Breton contralto Julie Bernier de Maligny, for whom many of his later songs were written. The wonderful de Musset settings of 1870 are exquisitely sensual, though politics resurfaces in the background of the central ‘Chanson de Barberine’, where the departure for the battlefield of the heroine’s soldier lover hints at French losses in the Franco-Prussian war. His last songs, written in the 1880s contemporaneously with Le roi d’Ys, share both its absolute conciseness and its debt to Breton folk music. It’s an impressive body of work, and there seems no reason, apart from ignorance, why the best of it is heard so infrequently.

Edouard Lalo - Tassis Christoyannis & Jeff Cohen - Complete Songs (2015) {Aparte-Harmonia Mundi AP110}


The close recording occasionally catches a pulse in Christoyannis’s tone, and he struggles a bit with the immense vocal span of ‘Adieu au désert’. But he is an outstanding communicator here, admirably aware of textual and musical subtleties, without over-dramatising. The Hugo settings gleam with wit. The fragile eroticism of the de Musset set is beautifully done, and his tender way with the last songs is extraordinarily moving. Cohen is a fine accompanist, weighty yet detailed, formidably coming into his own in the Béranger Romances, where the complex piano-writing carries the primary emotional meaning. I would have preferred more detailed booklet-notes than those provided, but this is a superb issue nevertheless. It’s essential listening if you care for French song.
Edouard Lalo - Tassis Christoyannis & Jeff Cohen - Complete Songs (2015) {Aparte-Harmonia Mundi AP110}


Aparté INFO

Personnel:
Édouard Lalo (1823-1892) - composer
Complete Songs / Intégrale des Mélodies


Tassis Christoyannis, baryton
Jeff Cohen, piano

with
Johannes Grosso, oboe hautbois *

tracklist:
CD1

01. L’Ombre de Dieu
02. L’Adieu au désert
Six Romances populaires de Pierre-Jean de Béranger
03. La Pauvre femme
04. Beaucoup d’amour
05. Le Suicide
06. Si j’étais un petit oiseau
07. Les Petits coups
08. Le Vieux vagabond
09. Le Novice

CD2
Six mélodies, op. 17

01. Guitare
02. Puisqu’ici-bas toute âme
03. L’Aube naît
04. Dieu qui sourit et qui donne
05. Oh ! quand je dors
06. Amis, vive l’orgie
07. Chanson à boire
08. Ballade à la lune
Trois mélodies sur des poèmes d’Alfred de Musset
09. À une fleur
10. Chanson de Barberine
11. La Zuecca
12. Aubade
Trois mélodies
13. La Fenaison
14. Souvenir
15. L’Esclave
Cinq Lieder
16. Prière de l’enfant à son réveil
17. À celle qui part
18. Tristesse
19. Viens !
20. La Chanson de l’alouette
21. Le Chant breton*
22. Marine
23. Le Rouge-gorge

Exact Audio Copy V1.1 from 23. June 2015

EAC extraction logfile from 14. April 2016, 13:21

Tassis Christoyannis, Jeff Cohen / Edouard Lalo - Complete Songs CD1

Used drive : ATAPI iHBS112 2 Adapter: 1 ID: 1

Read mode : Secure
Utilize accurate stream : Yes
Defeat audio cache : Yes
Make use of C2 pointers : No

Read offset correction : 6
Overread into Lead-In and Lead-Out : No
Fill up missing offset samples with silence : Yes
Delete leading and trailing silent blocks : No
Null samples used in CRC calculations : Yes
Used interface : Native Win32 interface for Win NT & 2000
Gap handling : Appended to previous track

Used output format : User Defined Encoder
Selected bitrate : 768 kBit/s
Quality : High
Add ID3 tag : No
Command line compressor : C:\Program Files\Exact Audio Copy\FLAC\FLAC.EXE
Additional command line options : -8 -V -T "ARTIST=%artist%" -T "TITLE=%title%" -T "ALBUM=%albumtitle%" -T "DATE=%year%" -T "TRACKNUMBER=%tracknr%" -T "GENRE=%genre%" -T "PERFORMER=%albuminterpret%" -T "COMPOSER=%composer%" -T "ALBUMARTIST=%albumartist%" -T "DISCNUMBER=%cdnumber%" -T "TOTALDISCS=%totalcds%" -T "TOTALTRACKS=%numtracks%" -T "COMMENT=EAC Secure Mode, Test & Copy, AccurateRip, FLAC -8" %source% -o %dest%


TOC of the extracted CD

Track | Start | Length | Start sector | End sector
––––––––––––––––––––––––––––-
1 | 0:00.00 | 4:50.54 | 0 | 21803
2 | 4:50.54 | 6:57.53 | 21804 | 53131
3 | 11:48.32 | 10:07.47 | 53132 | 98703
4 | 21:56.04 | 5:22.42 | 98704 | 122895
5 | 27:18.46 | 10:28.42 | 122896 | 170037
6 | 37:47.13 | 7:34.57 | 170038 | 204144
7 | 45:21.70 | 2:41.54 | 204145 | 216273
8 | 48:03.49 | 7:53.06 | 216274 | 251754
9 | 55:56.55 | 14:24.36 | 251755 | 316590


Track 1

Filename F:\DL\Tassis Christoyannis, Jeff Cohen - Edouard Lalo - Complete Songs CD1 (2015) [FLAC]\01 - L'Ombre De Dieu.wav

Pre-gap length 0:00:02.00

Peak level 100.0 %
Extraction speed 2.3 X
Track quality 100.0 %
Test CRC AB5F0783
Copy CRC AB5F0783
Track not present in AccurateRip database
Copy OK

Track 2

Filename F:\DL\Tassis Christoyannis, Jeff Cohen - Edouard Lalo - Complete Songs CD1 (2015) [FLAC]\02 - L'Adieu Au Desert.wav

Peak level 100.0 %
Extraction speed 2.7 X
Track quality 100.0 %
Test CRC 22AC96C8
Copy CRC 22AC96C8
Track not present in AccurateRip database
Copy OK

Track 3

Filename F:\DL\Tassis Christoyannis, Jeff Cohen - Edouard Lalo - Complete Songs CD1 (2015) [FLAC]\03 - Six Romances Populaires De Pierre-Jean De Beranger - La Pauvre Femme.wav

Peak level 73.7 %
Extraction speed 3.1 X
Track quality 100.0 %
Test CRC 2D4C0B32
Copy CRC 2D4C0B32
Track not present in AccurateRip database
Copy OK

Track 4

Filename F:\DL\Tassis Christoyannis, Jeff Cohen - Edouard Lalo - Complete Songs CD1 (2015) [FLAC]\04 - Six Romances Populaires De Pierre-Jean De Beranger - Beaucoup D'amour.wav

Peak level 96.5 %
Extraction speed 3.3 X
Track quality 100.0 %
Test CRC 66B7EB7A
Copy CRC 66B7EB7A
Track not present in AccurateRip database
Copy OK

Track 5

Filename F:\DL\Tassis Christoyannis, Jeff Cohen - Edouard Lalo - Complete Songs CD1 (2015) [FLAC]\05 - Six Romances Populaires De Pierre-Jean De Beranger - Le Suicide.wav

Peak level 100.0 %
Extraction speed 3.8 X
Track quality 100.0 %
Test CRC 308B1F2D
Copy CRC 308B1F2D
Track not present in AccurateRip database
Copy OK

Track 6

Filename F:\DL\Tassis Christoyannis, Jeff Cohen - Edouard Lalo - Complete Songs CD1 (2015) [FLAC]\06 - Six Romances Populaires De Pierre-Jean De Beranger - Si J'etais Un Petit Oiseau.wav

Peak level 100.0 %
Extraction speed 4.0 X
Track quality 100.0 %
Test CRC 7BDA5691
Copy CRC 7BDA5691
Track not present in AccurateRip database
Copy OK

Track 7

Filename F:\DL\Tassis Christoyannis, Jeff Cohen - Edouard Lalo - Complete Songs CD1 (2015) [FLAC]\07 - Six Romances Populaires De Pierre-Jean De Beranger - Les Petits Coups.wav

Peak level 100.0 %
Extraction speed 3.7 X
Track quality 100.0 %
Test CRC 67BABB79
Copy CRC 67BABB79
Track not present in AccurateRip database
Copy OK

Track 8

Filename F:\DL\Tassis Christoyannis, Jeff Cohen - Edouard Lalo - Complete Songs CD1 (2015) [FLAC]\08 - Six Romances Populaires De Pierre-Jean De Beranger - Le Vieux Vagabond.wav

Peak level 100.0 %
Extraction speed 3.7 X
Track quality 99.9 %
Test CRC E9161E5E
Copy CRC E9161E5E
Track not present in AccurateRip database
Copy OK

Track 9

Filename F:\DL\Tassis Christoyannis, Jeff Cohen - Edouard Lalo - Complete Songs CD1 (2015) [FLAC]\09 - Le Novice, Op. 5.wav

Peak level 100.0 %
Extraction speed 4.8 X
Track quality 100.0 %
Test CRC 78B42141
Copy CRC 78B42141
Track not present in AccurateRip database
Copy OK


None of the tracks are present in the AccurateRip database

No errors occurred

End of status report

–– CUETools DB Plugin V2.1.6

[CTDB TOCID: CjW75LHdXOSsofLUQx35e55mP0k-] found
Submit result: already submitted
Track | CTDB Status
1 | (1/1) Accurately ripped
2 | (1/1) Accurately ripped
3 | (1/1) Accurately ripped
4 | (1/1) Accurately ripped
5 | (1/1) Accurately ripped
6 | (1/1) Accurately ripped
7 | (1/1) Accurately ripped
8 | (1/1) Accurately ripped
9 | (1/1) Accurately ripped


==== Log checksum B536706C6819DA0C11D3E35DA32C0A5FE5B2D4323F76528F92470D8331F12E5E ====

Exact Audio Copy V1.1 from 23. June 2015

EAC extraction logfile from 14. April 2016, 12:15

Tassis Christoyannis, Jeff Cohen / Edouard Lalo - Complete Songs CD2

Used drive : ATAPI iHBS112 2 Adapter: 1 ID: 1

Read mode : Secure
Utilize accurate stream : Yes
Defeat audio cache : Yes
Make use of C2 pointers : No

Read offset correction : 6
Overread into Lead-In and Lead-Out : No
Fill up missing offset samples with silence : Yes
Delete leading and trailing silent blocks : No
Null samples used in CRC calculations : Yes
Used interface : Native Win32 interface for Win NT & 2000
Gap handling : Appended to previous track

Used output format : User Defined Encoder
Selected bitrate : 768 kBit/s
Quality : High
Add ID3 tag : No
Command line compressor : C:\Program Files\Exact Audio Copy\FLAC\FLAC.EXE
Additional command line options : -8 -V -T "ARTIST=%artist%" -T "TITLE=%title%" -T "ALBUM=%albumtitle%" -T "DATE=%year%" -T "TRACKNUMBER=%tracknr%" -T "GENRE=%genre%" -T "PERFORMER=%albuminterpret%" -T "COMPOSER=%composer%" -T "ALBUMARTIST=%albumartist%" -T "DISCNUMBER=%cdnumber%" -T "TOTALDISCS=%totalcds%" -T "TOTALTRACKS=%numtracks%" -T "COMMENT=EAC Secure Mode, Test & Copy, AccurateRip, FLAC -8" %source% -o %dest%


TOC of the extracted CD

Track | Start | Length | Start sector | End sector
––––––––––––––––––––––––––––-
1 | 0:00.00 | 1:52.02 | 0 | 8401
2 | 1:52.02 | 2:48.66 | 8402 | 21067
3 | 4:40.68 | 3:13.02 | 21068 | 35544
4 | 7:53.70 | 1:39.58 | 35545 | 43027
5 | 9:33.53 | 3:24.06 | 43028 | 58333
6 | 12:57.59 | 2:42.04 | 58334 | 70487
7 | 15:39.63 | 1:07.59 | 70488 | 75571
8 | 16:47.47 | 2:44.36 | 75572 | 87907
9 | 19:32.08 | 2:39.00 | 87908 | 99832
10 | 22:11.08 | 1:48.18 | 99833 | 107950
11 | 23:59.26 | 1:03.57 | 107951 | 112732
12 | 25:03.08 | 3:50.00 | 112733 | 129982
13 | 28:53.08 | 2:00.13 | 129983 | 138995
14 | 30:53.21 | 2:48.33 | 138996 | 151628
15 | 33:41.54 | 2:52.08 | 151629 | 164536
16 | 36:33.62 | 4:14.00 | 164537 | 183586
17 | 40:47.62 | 2:47.66 | 183587 | 196177
18 | 43:35.53 | 3:23.07 | 196178 | 211409
19 | 46:58.60 | 3:08.64 | 211410 | 225573
20 | 50:07.49 | 1:41.24 | 225574 | 233172
21 | 51:48.73 | 2:51.64 | 233173 | 246061
22 | 54:40.62 | 3:59.12 | 246062 | 263998
23 | 58:39.74 | 2:40.34 | 263999 | 276032


Track 1

Filename F:\DL\Tassis Christoyannis, Jeff Cohen - Edouard Lalo - Complete Songs CD2 (2015) [FLAC]\01 - Guitare.wav

Pre-gap length 0:00:02.00

Peak level 100.0 %
Extraction speed 1.6 X
Track quality 100.0 %
Test CRC 7E4BA74C
Copy CRC 7E4BA74C
Track not present in AccurateRip database
Copy OK

Track 2

Filename F:\DL\Tassis Christoyannis, Jeff Cohen - Edouard Lalo - Complete Songs CD2 (2015) [FLAC]\02 - Puisqu'ici-bas toute ame.wav

Peak level 81.6 %
Extraction speed 1.8 X
Track quality 100.0 %
Test CRC 57796C14
Copy CRC 57796C14
Track not present in AccurateRip database
Copy OK

Track 3

Filename F:\DL\Tassis Christoyannis, Jeff Cohen - Edouard Lalo - Complete Songs CD2 (2015) [FLAC]\03 - L'Aube nait.wav

Peak level 100.0 %
Extraction speed 2.0 X
Track quality 100.0 %
Test CRC F893051D
Copy CRC F893051D
Track not present in AccurateRip database
Copy OK

Track 4

Filename F:\DL\Tassis Christoyannis, Jeff Cohen - Edouard Lalo - Complete Songs CD2 (2015) [FLAC]\04 - Dieu qui sourit et qui donne.wav

Peak level 100.0 %
Extraction speed 1.8 X
Track quality 100.0 %
Test CRC D7C189C5
Copy CRC D7C189C5
Track not present in AccurateRip database
Copy OK

Track 5

Filename F:\DL\Tassis Christoyannis, Jeff Cohen - Edouard Lalo - Complete Songs CD2 (2015) [FLAC]\05 - Oh ! Quand je dors.wav

Peak level 100.0 %
Extraction speed 1.8 X
Track quality 100.0 %
Test CRC 6158D544
Copy CRC 6158D544
Track not present in AccurateRip database
Copy OK

Track 6

Filename F:\DL\Tassis Christoyannis, Jeff Cohen - Edouard Lalo - Complete Songs CD2 (2015) [FLAC]\06 - Amis, vive l'orgie.wav

Peak level 99.9 %
Extraction speed 2.4 X
Track quality 100.0 %
Test CRC AE5F8069
Copy CRC AE5F8069
Track not present in AccurateRip database
Copy OK

Track 7

Filename F:\DL\Tassis Christoyannis, Jeff Cohen - Edouard Lalo - Complete Songs CD2 (2015) [FLAC]\07 - Chanson a boire.wav

Peak level 100.0 %
Extraction speed 1.9 X
Track quality 100.0 %
Test CRC F8CCE9BD
Copy CRC F8CCE9BD
Track not present in AccurateRip database
Copy OK

Track 8

Filename F:\DL\Tassis Christoyannis, Jeff Cohen - Edouard Lalo - Complete Songs CD2 (2015) [FLAC]\08 - Ballade a la lune.wav

Peak level 85.5 %
Extraction speed 2.5 X
Track quality 100.0 %
Test CRC EB35FEFC
Copy CRC EB35FEFC
Track not present in AccurateRip database
Copy OK

Track 9

Filename F:\DL\Tassis Christoyannis, Jeff Cohen - Edouard Lalo - Complete Songs CD2 (2015) [FLAC]\09 - A une fleur.wav

Peak level 67.6 %
Extraction speed 1.7 X
Track quality 99.9 %
Test CRC D0C48942
Copy CRC D0C48942
Track not present in AccurateRip database
Copy OK

Track 10

Filename F:\DL\Tassis Christoyannis, Jeff Cohen - Edouard Lalo - Complete Songs CD2 (2015) [FLAC]\10 - Chanson de Barberine.wav

Peak level 83.5 %
Extraction speed 1.5 X
Track quality 99.9 %
Test CRC 7F3D2B30
Copy CRC 7F3D2B30
Track not present in AccurateRip database
Copy OK

Track 11

Filename F:\DL\Tassis Christoyannis, Jeff Cohen - Edouard Lalo - Complete Songs CD2 (2015) [FLAC]\11 - La Zuecca.wav

Peak level 94.3 %
Extraction speed 1.1 X
Track quality 99.8 %
Test CRC EBAC41F6
Copy CRC EBAC41F6
Track not present in AccurateRip database
Copy OK

Track 12

Filename F:\DL\Tassis Christoyannis, Jeff Cohen - Edouard Lalo - Complete Songs CD2 (2015) [FLAC]\12 - Aubade.wav

Peak level 99.9 %
Extraction speed 2.6 X
Track quality 100.0 %
Test CRC 289C61B2
Copy CRC 289C61B2
Track not present in AccurateRip database
Copy OK

Track 13

Filename F:\DL\Tassis Christoyannis, Jeff Cohen - Edouard Lalo - Complete Songs CD2 (2015) [FLAC]\13 - La Fenaison.wav

Peak level 99.3 %
Extraction speed 1.7 X
Track quality 99.9 %
Test CRC 5164F7FF
Copy CRC 5164F7FF
Track not present in AccurateRip database
Copy OK

Track 14

Filename F:\DL\Tassis Christoyannis, Jeff Cohen - Edouard Lalo - Complete Songs CD2 (2015) [FLAC]\14 - souvenir.wav

Peak level 46.9 %
Extraction speed 2.7 X
Track quality 100.0 %
Test CRC D76171C0
Copy CRC D76171C0
Track not present in AccurateRip database
Copy OK

Track 15

Filename F:\DL\Tassis Christoyannis, Jeff Cohen - Edouard Lalo - Complete Songs CD2 (2015) [FLAC]\15 - L'Esclave.wav

Peak level 85.5 %
Extraction speed 3.0 X
Track quality 100.0 %
Test CRC CC3596AE
Copy CRC CC3596AE
Track not present in AccurateRip database
Copy OK

Track 16

Filename F:\DL\Tassis Christoyannis, Jeff Cohen - Edouard Lalo - Complete Songs CD2 (2015) [FLAC]\16 - Priere de l'enfant a son reveil.wav

Peak level 74.1 %
Extraction speed 2.7 X
Track quality 100.0 %
Test CRC F474B80F
Copy CRC F474B80F
Track not present in AccurateRip database
Copy OK

Track 17

Filename F:\DL\Tassis Christoyannis, Jeff Cohen - Edouard Lalo - Complete Songs CD2 (2015) [FLAC]\17 - A celle qui part.wav

Peak level 100.0 %
Extraction speed 2.5 X
Track quality 100.0 %
Test CRC 5C7E2AC1
Copy CRC 5C7E2AC1
Track not present in AccurateRip database
Copy OK

Track 18

Filename F:\DL\Tassis Christoyannis, Jeff Cohen - Edouard Lalo - Complete Songs CD2 (2015) [FLAC]\18 - Tristesse.wav

Peak level 96.1 %
Extraction speed 3.4 X
Track quality 100.0 %
Test CRC 956E7AF7
Copy CRC 956E7AF7
Track not present in AccurateRip database
Copy OK

Track 19

Filename F:\DL\Tassis Christoyannis, Jeff Cohen - Edouard Lalo - Complete Songs CD2 (2015) [FLAC]\19 - Viens !.wav

Peak level 100.0 %
Extraction speed 3.4 X
Track quality 100.0 %
Test CRC 7EE38E05
Copy CRC 7EE38E05
Track not present in AccurateRip database
Copy OK

Track 20

Filename F:\DL\Tassis Christoyannis, Jeff Cohen - Edouard Lalo - Complete Songs CD2 (2015) [FLAC]\20 - La Chanson de l'alouette.wav

Peak level 100.0 %
Extraction speed 3.1 X
Track quality 100.0 %
Test CRC CF1C764C
Copy CRC CF1C764C
Track not present in AccurateRip database
Copy OK

Track 21

Filename F:\DL\Tassis Christoyannis, Jeff Cohen - Edouard Lalo - Complete Songs CD2 (2015) [FLAC]\21 - Le Chant Breton.wav

Peak level 100.0 %
Extraction speed 3.6 X
Track quality 100.0 %
Test CRC 2114A379
Copy CRC 2114A379
Track not present in AccurateRip database
Copy OK

Track 22

Filename F:\DL\Tassis Christoyannis, Jeff Cohen - Edouard Lalo - Complete Songs CD2 (2015) [FLAC]\22 - Marine.wav

Peak level 99.9 %
Extraction speed 3.9 X
Track quality 100.0 %
Test CRC C837E767
Copy CRC C837E767
Track not present in AccurateRip database
Copy OK

Track 23

Filename F:\DL\Tassis Christoyannis, Jeff Cohen - Edouard Lalo - Complete Songs CD2 (2015) [FLAC]\23 - Le Rouge-gorge.wav

Peak level 99.9 %
Extraction speed 3.6 X
Track quality 100.0 %
Test CRC E62153C4
Copy CRC E62153C4
Track not present in AccurateRip database
Copy OK


None of the tracks are present in the AccurateRip database

No errors occurred

End of status report

–– CUETools DB Plugin V2.1.6

[CTDB TOCID: 86FYJnSekQTntgJbLaqTVe_pVQ0-] disk not present in database
Submit result: 86FYJnSekQTntgJbLaqTVe_pVQ0- has been uploaded


==== Log checksum D1D98076D1487ECA9D51A72D60ED7D40083E384B4D79DB5D0B925A7A05F82DF1 ====


Edouard Lalo - Tassis Christoyannis & Jeff Cohen - Complete Songs (2015) {Aparte-Harmonia Mundi AP110}



===