Subcategories

Edward Vesala - Nordic Gallery (1994)

Posted By: Bezz
Edward Vesala - Nordic Gallery (1994)

Edward Vesala - Nordic Gallery (1994)
EAC rip | FLAC + CUE + LOG | Full Scans | 400 Mb
Genre ~ Modern Creative
Label ~ ECM Records 1541

The Penguin Guide to Jazz calls Edward Vesala "a major musical presence [who] deserves the widest possible recognition." Nordic Gallery comprises all the colours in his broad palette, from Finnish folklore to contemporary classical music, from rock to idiosyncratic jazz. The album bursts with "found sounds" from around the world and the contributions of guest players. "A highly original composer with a palette that includes harp, woodwinds, accordion and percussion, as well as more familiar jazz instruments. Vesala can write impressionist pieces of great beauty." ~ BBC Music Magazine


Tracks List


1. Bird In The High Room
2. Fulflandia
3. The Quay Of Meditative Future
4. Hadendas
5. Unexpected Guest
6. Bluego
7. Lavander Lass Blossom
8. Streaming Below The Times
9. One-Two-Three Or Four-Five-Six
10. A Significant Look Of Birch Grove
11. On The Shady Side Of Forty
12. Flavor Lust

All compositions by Edward Vesala


Personel


Jorma Tapio: alto saxophone, bass & alto clarinets, bass flute
Jouni Kannisto: tenor saxophone, flute
Pepa Paivinen: tenor, soprano, baritone & bass saxophones, flute, alto flute, piccolo
Matti Riikonen: trumpet
Iro Haarla: harp, piano, keyboards, accordion, koto
Jimi Sumen: guitar
Edward Vesala: drums, percussion, bass, tamboura, angklung

Petri Ikkela: accordion
Pekka Sarmanto: bass
Kari Linsted: cello
Tapani Rinne: clarinet

Recorded 1993, 1994 Sound And Fury Studio, Korkeakoski, Finland
Engineer: Jimi Sumen
Mixed at Rainbow Studio, Oslo
Engineer: Jan Erik Kongshaug
Produced by Manfred Eicher & Edward Vesala



Exact Audio Copy V0.99 prebeta 5 from 4. May 2009

EAC extraction logfile from 11. July 2009, 20:11

Edward Vesala with Sound & Fury (large ensemble) / Nordic Gallery

Used drive : ASUS DRW-20B1ST Adapter: 3 ID: 0

Read mode : Secure
Utilize accurate stream : Yes
Defeat audio cache : Yes
Make use of C2 pointers : No

Read offset correction : 6
Overread into Lead-In and Lead-Out : No
Fill up missing offset samples with silence : Yes
Delete leading and trailing silent blocks : No
Null samples used in CRC calculations : Yes
Used interface : Native Win32 interface for Win NT & 2000
Gap handling : Appended to previous track

Used output format : User Defined Encoder
Selected bitrate : 768 kBit/s
Quality : High
Add ID3 tag : No
Command line compressor : C:\Program Files\Exact Audio Copy\FLAC\FLAC.EXE
Additional command line options : -8 -V -T "ARTIST=%a" -T "TITLE=%t" -T "ALBUM=%g" -T "DATE=%y" -T "TRACKNUMBER=%n" -T "GENRE=%m" -T "COMMENT=EAC FLAC -8" %s


TOC of the extracted CD

Track | Start | Length | Start sector | End sector
––––––––––––––––––––––––––––-
1 | 0:00.00 | 11:02.02 | 0 | 49651
2 | 11:02.02 | 2:45.65 | 49652 | 62091
3 | 13:47.67 | 10:09.73 | 62092 | 107839
4 | 23:57.65 | 5:07.62 | 107840 | 130926
5 | 29:05.52 | 2:21.40 | 130927 | 141541
6 | 31:27.17 | 4:07.00 | 141542 | 160066
7 | 35:34.17 | 8:35.68 | 160067 | 198759
8 | 44:10.10 | 9:42.57 | 198760 | 242466
9 | 53:52.67 | 1:46.43 | 242467 | 250459
10 | 55:39.35 | 1:13.70 | 250460 | 256004
11 | 56:53.30 | 5:49.22 | 256005 | 282201
12 | 62:42.52 | 6:16.20 | 282202 | 310421


Track 1

Filename I:\Torrent\Ðàçäà÷è\Edward Vesala with Sound & Fury - Nordic Gallery (1994) [FLAC]\01. Bird in the High Room.wav

Pre-gap length 0:00:02.00

Peak level 95.8 %
Track quality 100.0 %
Test CRC FDB10917
Copy CRC FDB10917
Track not present in AccurateRip database
Copy OK

Track 2

Filename I:\Torrent\Ðàçäà÷è\Edward Vesala with Sound & Fury - Nordic Gallery (1994) [FLAC]\02. Fulflandia.wav

Pre-gap length 0:00:03.15

Peak level 84.5 %
Track quality 100.0 %
Test CRC 64CCAD33
Copy CRC 64CCAD33
Track not present in AccurateRip database
Copy OK

Track 3

Filename I:\Torrent\Ðàçäà÷è\Edward Vesala with Sound & Fury - Nordic Gallery (1994) [FLAC]\03. The Quay of Meditative Future.wav

Pre-gap length 0:00:03.02

Peak level 76.6 %
Track quality 99.9 %
Test CRC 4E453D0C
Copy CRC 4E453D0C
Track not present in AccurateRip database
Copy OK

Track 4

Filename I:\Torrent\Ðàçäà÷è\Edward Vesala with Sound & Fury - Nordic Gallery (1994) [FLAC]\04. Hadendas.wav

Pre-gap length 0:00:04.30

Peak level 83.3 %
Track quality 99.9 %
Test CRC 6ACD3891
Copy CRC 6ACD3891
Track not present in AccurateRip database
Copy OK

Track 5

Filename I:\Torrent\Ðàçäà÷è\Edward Vesala with Sound & Fury - Nordic Gallery (1994) [FLAC]\05. Unexpected Guest.wav

Pre-gap length 0:00:02.57

Peak level 88.5 %
Track quality 100.0 %
Test CRC 99A3F45C
Copy CRC 99A3F45C
Track not present in AccurateRip database
Copy OK

Track 6

Filename I:\Torrent\Ðàçäà÷è\Edward Vesala with Sound & Fury - Nordic Gallery (1994) [FLAC]\06. Bluego.wav

Peak level 84.6 %
Track quality 100.0 %
Test CRC 82F68836
Copy CRC 82F68836
Track not present in AccurateRip database
Copy OK

Track 7

Filename I:\Torrent\Ðàçäà÷è\Edward Vesala with Sound & Fury - Nordic Gallery (1994) [FLAC]\07. Lavander Lass Blossom.wav

Pre-gap length 0:00:01.20

Peak level 75.8 %
Track quality 100.0 %
Test CRC 80141B60
Copy CRC 80141B60
Track not present in AccurateRip database
Copy OK

Track 8

Filename I:\Torrent\Ðàçäà÷è\Edward Vesala with Sound & Fury - Nordic Gallery (1994) [FLAC]\08. Streaming Below the Times.wav

Pre-gap length 0:00:04.03

Peak level 84.1 %
Track quality 99.9 %
Test CRC F2F5DFBB
Copy CRC F2F5DFBB
Track not present in AccurateRip database
Copy OK

Track 9

Filename I:\Torrent\Ðàçäà÷è\Edward Vesala with Sound & Fury - Nordic Gallery (1994) [FLAC]\09. One-Two-Three of Four-Five-Six.wav

Pre-gap length 0:00:01.72

Peak level 76.1 %
Track quality 99.9 %
Test CRC D47B8C78
Copy CRC D47B8C78
Track not present in AccurateRip database
Copy OK

Track 10

Filename I:\Torrent\Ðàçäà÷è\Edward Vesala with Sound & Fury - Nordic Gallery (1994) [FLAC]\10. A Significant Look of Birch Grove.wav

Peak level 59.9 %
Track quality 100.0 %
Test CRC D83BEC76
Copy CRC D83BEC76
Track not present in AccurateRip database
Copy OK

Track 11

Filename I:\Torrent\Ðàçäà÷è\Edward Vesala with Sound & Fury - Nordic Gallery (1994) [FLAC]\11. On the Shady Side of Forty.wav

Pre-gap length 0:00:02.60

Peak level 97.6 %
Track quality 99.9 %
Test CRC 338AAF88
Copy CRC 338AAF88
Track not present in AccurateRip database
Copy OK

Track 12

Filename I:\Torrent\Ðàçäà÷è\Edward Vesala with Sound & Fury - Nordic Gallery (1994) [FLAC]\12. Flavor Lust.wav

Pre-gap length 0:00:03.22

Peak level 91.7 %
Track quality 99.9 %
Test CRC 57CFB6E0
Copy CRC 57CFB6E0
Track not present in AccurateRip database
Copy OK


None of the tracks are present in the AccurateRip database

No errors occurred

End of status report


Edward Vesala - Nordic Gallery (1994)


Edward Vesala - Nordic Gallery (1994)



Special thanks to the original uploader, cachanoff!

FILESONIC links

Part 1 | Part 2 | Part 3 | Part 4


FILESERVE links

Part 1 | Part 2 | Part 3 | Part 4


HOTFILE links

Part 1 | Part 2 | Part 3 | Part 4


BITSHARE links

Part 1 | Part 2 | Part 3 | Part 4



Welcome to my blog for more wonderful music


PLEASE DO NOT PROVIDE MIRROR LINKS!