Subcategories

Electric Frankenstein - Sick Songs

Posted By: Toxxy
Electric Frankenstein - Sick Songs

Electric Frankenstein - Sick Songs
Year/Label: 1997 Nesak International/Kado | CD#: 19829-2 | File-host: RS.com
FLAC-image + Mp3 @320 CBR | Complete Artwork (600dpi) | WinRAR Recovery 5%
High Energy Punk-Rock'n'Roll | CD-length 28:21 | 222 MB (FLAC) | 65 MB (Mp3)

EAC Secure-rip with LOG+CUE+COVERS | Source: my CD-collection

The 10-song mini-album Sick Songs is an outstanding collection of anthemic rockers like Action High, I'll Be Standing, Not Wit U, Learn To Burn, Back At You, Clock-wise, Out There, that will remain fan favorites. The guitars of Jim Foster and Sal Canzonieri are in full bloom. [Album released in UK as Action High].



You're sick if you dont buy SICK SONGS!

Electric Frankenstein just cant fail. This album is full of rock and roll energy that you just cant live without. Weather you are a fan of punk or rock music, this is the best of both worlds at its finest. Songs on this album such as "Not with you", and "Action high" will become a few of your favorites, as they have become a few of mine. If you like the Stooges, The Dead boys, Slaughter and the Dogs, and bands alike, you must own this album. Not only do all their albums completly rock, to see them live is pure devils bliss! LONG LIVE ROCK AND ROLL MUSIC! [anonymous review]


Electric Frankenstein at Wikipedia

Official homepage


The return of REAL punk rock!

Have you got a friend who insists that there are no good punk groups anymore? Slip them a copy of SICK SONGS, the perfect antidote to overproduced pop punk. This is my favorite from EF although any of their records satisfy. Phenomenal snotty vocals, loud 3 chord guitars and cool songs. Imagine if Black Flag never moved beyond Nervous Breakdown. Like the Flag, EF have an amazing sucession of singers. You can't go wrong with these guys; I have 5 EF discs, all great. Help the Youth of today, give this to a kid who thinks the Blinks and New Found Glorys are cool. They just don't know any better. PS. This disc features current Hollywood Hate singer Scott. Check em out! [anonymous review]


Track List:

1. Action High
2. I'll Be Standing (On My Own)
3. Not With You
4. Pure and Simple
5. I Wish I Could
6. Learn to Burn
7. Back at You
8. Clockwise
9. Out There (F-Word)



FLAC-image:
Part 1
Part 2
Part 3

Mp3 @320 CBR:
Download

Complete scanned artwork (600dpi):
Download


5% WinRar Recovery Record for ALL files.

Password = thetoxxster

Enjoy the tunes ;-)


NO mirror linx please!



Exact Audio Copy V0.99 prebeta 4 from 23. January 2008

EAC extraction logfile from 17. May 2009, 12:18

Electric Frankenstein / Sick Songs

Used drive : TSSTcorpCDDVDW SH-S202N Adapter: 0 ID: 0

Read mode : Secure
Utilize accurate stream : Yes
Defeat audio cache : Yes
Make use of C2 pointers : No

Read offset correction : 6
Overread into Lead-In and Lead-Out : No
Fill up missing offset samples with silence : Yes
Delete leading and trailing silent blocks : No
Null samples used in CRC calculations : No
Used interface : Installed external ASPI interface

Used output format : User Defined Encoder
Selected bitrate : 320 kBit/s
Quality : High
Add ID3 tag : No
Command line compressor : C:\Programmer\Exact Audio Copy\Flac\flac.exe
Additional command line options : -V -8 -T "artist=%a" -T "title=%t" -T "album=%g" -T "date=%y" -T "tracknumber=%n" -T "genre=%m" %s


TOC of the extracted CD

Track | Start | Length | Start sector | End sector
––––––––––––––––––––––––––––-
1 | 0:00.00 | 2:49.69 | 0 | 12743
2 | 2:49.69 | 2:47.58 | 12744 | 25326
3 | 5:37.52 | 3:18.66 | 25327 | 40242
4 | 8:56.43 | 2:25.28 | 40243 | 51145
5 | 11:21.71 | 3:19.64 | 51146 | 66134
6 | 14:41.60 | 3:17.20 | 66135 | 80929
7 | 17:59.05 | 2:43.29 | 80930 | 93183
8 | 20:42.34 | 3:05.57 | 93184 | 107115
9 | 23:48.16 | 2:51.27 | 107116 | 119967
10 | 26:39.43 | 1:41.49 | 119968 | 127591


Range status and errors

Selected range

Filename D:\Electric Frankenstein - Sick Songs.wav

Peak level 96.6 %
Range quality 100.0 %
Test CRC 99C6D77C
Copy CRC 99C6D77C
Copy OK

No errors occurred


AccurateRip summary

Track 1 not present in database
Track 2 not present in database
Track 3 not present in database
Track 4 not present in database
Track 5 not present in database
Track 6 not present in database
Track 7 not present in database
Track 8 not present in database
Track 9 not present in database
Track 10 not present in database

None of the tracks are present in the AccurateRip database

End of status report


Electric Frankenstein - Conquers The World!