Subcategories

Eleni Vitali - The balcony accross the street (1989)

Posted By: Speedyclick
Eleni Vitali - The balcony accross the street (1989)

Eleni Vitali - The balcony accross the street (1989)
EAC Rip | FLAC (image & cue & log) & mp3 @ 320 kbps | tracks: 10 | ~ 217 Mb & 89 Mb | 34:09 | Scans
Label: CBS | 5% recovery record | Genre: Ballads

Eleni Vitali is a Greek-Gypsy singer and songwriter with a superb, expressive voice. She started her career in 1973 and till 1989 she released many saccessful albums in cooperation with great composers, becoming one of the first names in the folk song. This album was a surprise, because it contains 10 ballads with music and lyrics written by Vitali herself, in a different style than the folk (laiko) which had established her till then. Many of these songs are considered today among the best of her vast repertoire. Enjoy a great artist and a captivating voice.

TRACKLIST
01. The lonely grannies (I monahikes giagiades)
02. I was singing (Ego tragoudaga)
03. The ark (I kivotos)
04. Every house a fortress (Kathe spiti ohiro)
05. Mostly fro me (Pio poli gia mena)
06. The jaywalker (Perpatousa afirimeni)
07. Grandchild (Egona)
08. A morning in winter (Ena himoniatiko proi)
09. It's getting dark (Nihtoni)
10. Why are you looking at me (Ti me kitazete)

Exact Audio Copy V1.0 beta 1 from 15. November 2010

EAC extraction logfile from 12. August 2011, 1:44

Eleni Vitali / To apenanti mpalkoni

Used drive : HL-DT-STDVDRAM GH10N Adapter: 3 ID: 0

Read mode : Secure
Utilize accurate stream : Yes
Defeat audio cache : Yes
Make use of C2 pointers : No

Read offset correction : 667
Overread into Lead-In and Lead-Out : No
Fill up missing offset samples with silence : Yes
Delete leading and trailing silent blocks : No
Null samples used in CRC calculations : Yes
Used interface : Native Win32 interface for Win NT & 2000

Used output format : User Defined Encoder
Selected bitrate : 1024 kBit/s
Quality : High
Add ID3 tag : No
Command line compressor : C:\Program Files\FLAC\flac.exe
Additional command line options : -V -5 -T "artist=%a" -T "title=%t" -T "album=%g" -T "date=%y" -T "tracknumber=%n" -T "genre=%m" -5 %s


TOC of the extracted CD

Track | Start | Length | Start sector | End sector
––––––––––––––––––––––––––––-
1 | 0:00.00 | 4:02.23 | 0 | 18172
2 | 4:02.23 | 4:02.25 | 18173 | 36347
3 | 8:04.48 | 4:06.00 | 36348 | 54797
4 | 12:10.48 | 3:13.22 | 54798 | 69294
5 | 15:23.70 | 3:00.48 | 69295 | 82842
6 | 18:24.43 | 4:00.70 | 82843 | 100912
7 | 22:25.38 | 2:36.30 | 100913 | 112642
8 | 25:01.68 | 3:43.57 | 112643 | 129424
9 | 28:45.50 | 4:07.33 | 129425 | 147982
10 | 32:53.08 | 1:16.52 | 147983 | 153734


Range status and errors

Selected range

Filename U:\EAC Rips\GREEK\Eleni Vitali - To apenanti mpalkoni\Eleni Vitali - To apenanti mpalkoni.wav

Peak level 97.8 %
Extraction speed 0.1 X
Range quality 100.0 %
Test CRC 93B9F451
Copy CRC 93B9F451
Copy OK

No errors occurred


AccurateRip summary

Track 1 cannot be verified as accurate (confidence 2) [35F5E168], AccurateRip returned [2D921B1C]
Track 2 cannot be verified as accurate (confidence 2) [B2324052], AccurateRip returned [95A2E62C]
Track 3 cannot be verified as accurate (confidence 2) [67C623A9], AccurateRip returned [E5C42AED]
Track 4 cannot be verified as accurate (confidence 2) [4D7A3BE0], AccurateRip returned [9D3B10FA]
Track 5 cannot be verified as accurate (confidence 2) [2C2EB70B], AccurateRip returned [BAD0AE5F]
Track 6 cannot be verified as accurate (confidence 2) [D1E4F5C0], AccurateRip returned [2CD4F6D4]
Track 7 cannot be verified as accurate (confidence 2) [0B49E491], AccurateRip returned [2BFC97CD]
Track 8 cannot be verified as accurate (confidence 2) [BDEDF9D8], AccurateRip returned [AA7E7B94]
Track 9 cannot be verified as accurate (confidence 2) [A0C1174F], AccurateRip returned [E2CF1075]
Track 10 cannot be verified as accurate (confidence 2) [93D9090F], AccurateRip returned [554DD927]

No tracks could be verified as accurate
You may have a different pressing from the one(s) in the database

End of status report

==== Log checksum FCD13242F4F130B12B1A73FDB41DDEB9A13372044F78CAD81952D5CFF84E4F0D ====